.
Авторизация | Регистрация
Хочешь лучшие торренты? Добавь свой email!
Добавить

Торрент скачать бесплатно

» » Легенды завтрашнего дня / DCs Legends of Tomorrow (2016) WEB-DL [H.264] (сезон 1, серии 1 из 16) LostFilm [MP4|1280x718] (обновляемая) торрент скачать бесплатно




    Легенды завтрашнего дня / DCs Legends of Tomorrow (2016) WEB-DL [H.264] (сезон 1, серии 1 из 16) LostFilm [MP4|1280x718] (обновляемая) торрент скачать бесплатно

    Опубликовал: Админ | Дата: 26-01-2016, 04:02 | Просмотров: 95

    Производство: США/Berlanti Productions, Bonanza Productions, DC Entertainment
    Жанр: фантастика, боевик
    Режиссер: Дермотт Даунс, Глен Винтер, Джо Данте
    Актеры: Виктор Гарбер, Брэндон Рут, Кейти Лотц, Артур Дарвилл, Сиара Рене, Франц Драмех, Доминик Пёрселл, Вентворт Миллер, Каспер Крамп, Фальк Хеншел и др.

    Описание

    Увидев будущее, которого обязательно нужно избежать, Рип Хантер, путешественник во времени, собирает команду из героев и злодеев, чтобы противостоять смертельной угрозе. На кону стоит не только наша планета, но и все время в целом. Сможет ли эта команда победить бессмертное зло, абсолютно непохожее на то, что они видели раньше?

    Дата мировой премьеры: 21 января 2016
    Продолжительность: ~00: 44: 00 серия
    Качество видео: WEB-DL 720p
    Перевод: Многоголосый закадровый, профессиональный -LostFilm
    Видео: H.264/AVC, 1280x718 (16: 9), ~4000 Kbps
    Аудио Rus: AAC, 2 ch, 248 Kbps — многоголосый закадровый
    General
    Complete name : DC\'s Legends of Tomorrow LostFilmDCs.Legends.of.Tomorrow.S01E01.720p.WEB.rus.LostFilm.TV.mp4
    Format : MPEG-4
    Format profile : Base Media
    Codec ID : isom (isom)
    File size : 1.30 GiB
    Duration : 44mn 37s
    Overall bit rate mode : Variable
    Overall bit rate : 4 155 Kbps
    Collection : Легенды завтрашнего дня
    Season : 1
    Album : Легенды завтрашнего дня, Сезон 1
    Album/Performer : Легенды завтрашнего дня
    Part : 1
    Part/Position : 1
    Track name : Пилот. Часть 1
    Track name/Position : 1
    Performer : Легенды завтрашнего дня
    Genre : Sci-Fi Fantasy
    ContentType : TV Show
    Recorded date : 2016
    Encoded date : UTC 2016-01-22 20: 54: 27
    Tagged date : UTC 2016-01-22 20: 54: 27
    Writing application : Yamb 2.1.0.0 http://yamb.unite-video.com/LostCoder
    Copyright : LostFilm.TV (c)
    Cover : Yes
    Comment : В 2166 году могущественный человек по имени Вандал Сэвидж добился немыслимого — завоевал весь мир. Путешественник во времени Рип Хантер видел, какое будущее ожидает человечество, если беспощадный злодей осуществит свой коварный план.
    Part_ID : 101
    Video
    ID : 1
    Format : AVC
    Format/Info : Advanced Video Codec
    Format profile : High@L3.1
    Format settings, CABAC : No
    Format settings, ReFrames : 2 frames
    Codec ID : avc1
    Codec ID/Info : Advanced Video Coding
    Duration : 44mn 37s
    Bit rate : 4 000 Kbps
    Maximum bit rate : 13.1 Mbps
    Width : 1 280 pixels
    Height : 718 pixels
    Display aspect ratio : 16: 9
    Frame rate mode : Variable
    Frame rate : 23.976 fps
    Minimum frame rate : 23.974 fps
    Maximum frame rate : 23.981 fps
    Color space : YUV
    Chroma subsampling : 4: 2: 0
    Bit depth : 8 bits
    Scan type : Progressive
    Bits/(Pixel*Frame) : 0.182
    Stream size : 1.22 GiB (94%)
    Writing library : x264 core 112 r1834 a51816a
    Encoding settings : cabac=0/ref=3/deblock=1: 0: 0/analyse=0x1: 0x111/me=hex/subme=7/psy=1/psy_rd=1.00: 0.00/mixed_ref=1/me_range=16/chroma_me=1/trellis=1/8x8dct=0/cqm=0/deadzone=21, 11/fast_pskip=1/chroma_qp_offset=-2/threads=6/sliced_threads=0/nr=0/decimate=1/interlaced=0/constrained_intra=0/bframes=3/b_pyramid=2/b_adapt=1/b_bias=0/direct=1/weightb=1/open_gop=0/weightp=2/keyint=250/keyint_min=25/scenecut=40/intra_refresh=0/rc_lookahead=40/rc=abr/mbtree=1/bitrate=4000/ratetol=1.0/qcomp=0.60/qpmin=0/qpmax=51/qpstep=4/vbv_maxrate=5000/vbv_bufsize=2000/ip_ratio=1.40/aq=1: 1.00/nal_hrd=none
    Language : English
    Tagged date : UTC 2016-01-22 20: 54: 52
    Color range : Limited
    Color primaries : BT.709
    Transfer characteristics : BT.709
    Matrix coefficients : BT.709
    Audio
    ID : 2
    Format : AAC
    Format/Info : Advanced Audio Codec
    Format profile : LC
    Codec ID : 40
    Duration : 44mn 37s
    Bit rate mode : Variable
    Bit rate : 248 Kbps
    Maximum bit rate : 311 Kbps
    Channel(s) : 2 channels
    Channel positions : Front: L R
    Sampling rate : 48.0 KHz
    Frame rate : 46.875 fps (1024 spf)
    Compression mode : Lossy
    Stream size : 79.1 MiB (6%)
    Encoded date : UTC 2016-01-22 20: 54: 51
    Tagged date : UTC 2016-01-22 20: 54: 52


    Скриншоты для ознакомления




    Легенды завтрашнего дня/DCs Legends of Tomorrow (2016) WEB-DL [H.264] (сезон 1, серии 1 из 16) LostFilm [MP4|1280x718] (обновляемая)
    загрузка...
    Рейтинг →
     (голосов: 1, оценка 3/5, голосовать можно 1 раз )

    Другие торренты по теме:

  • Легенды завтрашнего дня / DCs Legends of Tomorrow (2016) WEB-DL [H.264 / 1080p-LQ] (сезон 1, серии 1 из 16) LostFilm (обновляемая)
  • Легенды завтрашнего дня / DCs Legends of Tomorrow (2016) WEB-DLRip (сезон 1, серии 1 из 16) LostFilm (обновляемая)
  • Легенды завтрашнего дня / DCs Legends of Tomorrow (2016) WEB-DLRip (сезон 1, серии 1 из 16) BaibaKo (обновляемая)
  • Легенды завтрашнего дня / DCs Legends of Tomorrow (2016) WEB-DLRip (сезон 1, серии 1 из 16) NewStudio (обновляемая)
  • Легенды завтрашнего дня / DCs Legends of Tomorrow (2016) WEB-DL [H.264 / 720p-LQ] (сезон 1, серии 1-4 из 16) BaibaKo (обновляемая)
  • Легенды завтрашнего дня / DCs Legends of Tomorrow (2016) HDTV [H.264 / 720p-LQ] (сезон 1, серия 12-13 из 16) [EN / RU, EN SUB]
  • Легенды завтрашнего дня / DCs Legends of Tomorrow (2016) WEB-DL [H.264 / 720p-LQ] (сезон 1, серии 1-15 из 16) BaibaKo (обновляемая)
  • Легенды завтрашнего дня / DCs Legends of Tomorrow (2016) WEB-DL [H.264] (сезон 2, серии 1-5 из 17) LostFilm [MP4|1280x718]


    • Комментарии (0):

      Информация

      Информация

        Посетители, находящиеся в группе Гости, не могут оставлять комментарии в данной новости.

        ↓ Меню




        ↓ Опрос

        Вы добавили сайт в закладки?
        Да
        Нет


        Top 10 за месяц (КПК и мобильные)