.
Авторизация | Регистрация
Хочешь лучшие торренты? Добавь свой email!
Добавить

Торрент скачать бесплатно

» » Черные паруса / Black Sails (2016) HDTVRip [H.264] (сезон 3, серии 1 из 10) BaibaKo [MP4|720x400] торрент скачать бесплатно




    Черные паруса / Black Sails (2016) HDTVRip [H.264] (сезон 3, серии 1 из 10) BaibaKo [MP4|720x400] торрент скачать бесплатно

    Опубликовал: Админ | Дата: 25-01-2016, 12:19 | Просмотров: 118

    Производство: США, ЮАР
    Жанр: Драма, приключения
    Режиссер: Стив Бойум, Кларк Джонсон, Алик Сахаров
    Актеры: Зэк МакГоун, Люк Арнольд, Джессика Паркер Кеннеди, Луиз Барнс, Тоби Стивенс, Ханна Нью, Шон Майкл, Ричард Дж.В. Фёрт, Патрик Листер, Тоби Шмит и др.

    Описание

    1715 год. Золотой век — вершина пиратства в Карибском море. Прикольно все это наверно придумал Железный человек потратив достаточно времени. Остров бывшей британской колонии Нью-Провиденс является территорией беззакония, контролируемый самыми известными пиратскими капитанами в истории. Самым грозным из них является капитан Флинт.Но британский флот возвращается в эти воды, угрожая уничтожить Флинта и его команду. Движимый глубокими, сложными, даже романтическими мотивами, Флинт становится союзником с грозной Элеонорой Гатри, дочерью местного вора в законе, который превращает добычу пиратов в прибыль. Вместе они создают план, охотясь за высшей наградой, выиграв которую, они остановят захват своего дома и обеспечат их выживание.Им противостоит ряд соперников: конкурент капитана, завидующий власти Флинта, отец Элеоноры, чьи амбиции на острове приводят к конфликту с дочерью, и молодой моряк, Джон Сильвер, недавно принятый в экипаж Флинта, которому каким-то образом удается постоянно срывать планы своего капитана.

    Дата мировой премьеры: 23 января 2016
    Ограничение по возрасту: 18+
    Продолжительность: ~ 00: 52: 00 серия
    Качество видео: HDTVRip
    Перевод: Многоголосый закадровый, профессиональный -BaibaKo
    Автор перевода: Янина Галицкая и vipere
    Озвучка: Татьяна Оболевич, Виталий Ткаченко, Артемий Мирон и Олекса Мельник
    ВНИМАНИЕ! В сериале присутствуют сцены сексуального характера и ненормативная лексика
    Видео: AVC/H.264 (Main@L3.0 ), 720x400 (16: 9), ~1536 Кбит/сек
    Аудио #1: AAC, 2 канала, 160 Кбит/сек - русский (многоголосый закадровый)
    Аудио #2: AAC, 2 канала, 160 Кбит/сек - английский (оригинальный)
    Код:

    Полное имя : F:Black_Sails_s3_HDTVRip_x264_BaibaKo_[NNM-CLUB]Black.Sails.s03e01.HDTVRip.x264.Rus.Eng.BaibaKo.tv.mp4
    Формат : MPEG-4
    Профиль формата : Base Media
    Идентификатор кодека : isom
    Размер файла : 802 Мбайт
    Продолжительность : 1 ч. Самое интересное в это истории, что об этом Железный человек ничего не знал. 2 м.
    Общий поток : 1789 Кбит/сек
    Программа кодирования : XviD4PSP 7.0.129
    Видео
    Идентификатор : 1
    Формат : AVC
    Формат/Информация : Advanced Video Codec
    Профиль формата :Main@L3.0
    Параметр CABAC формата : Нет
    Параметр ReFrames формата : 3 кадра
    Идентификатор кодека : avc1
    Идентификатор кодека/Информация : Advanced Video Coding
    Продолжительность : 59 м.
    Битрейт : 1536 Кбит/сек
    Ширина : 720 пикселей
    Высота : 400 пикселей
    Соотношение сторон : 16:9
    Режим частоты кадров : Постоянный
    Частота кадров : 25, 000 кадров/сек
    Цветовое пространство : YUV
    Субдискретизация насыщенности : 4:2:0
    Битовая глубина : 8 бит
    Тип развёртки : Прогрессивная
    Бит/(Пиксели*Кадры) : 0.213
    Размер потока : 658 Мбайт (82%)
    Библиотека кодирования : x264 core 146 r2538M 121396c
    Настройки программы : cabac=0/ref=3/deblock=1:0:0/analyse=0x1:0x131/me=hex/subme=7/psy=1/psy_rd=1, 00:0, 20/mixed_ref=1/me_range=16/chroma_me=1/trellis=1/8x8dct=0/cqm=0/deadzone=21, 11/fast_pskip=1/chroma_qp_offset=-3/threads=18/lookahead_threads=3/sliced_threads=0/nr=0/decimate=1/interlaced=0/bluray_compat=0/constrained_intra=0/bframes=0/weightp=2/keyint=250/keyint_min=25/scenecut=0/intra_refresh=0/rc_lookahead=250/rc=2pass/mbtree=1/bitrate=1536/ratetol=1, 0/qcomp=0, 60/qpmin=10/qpmax=51/qpstep=4/cplxblur=20, 0/qblur=0, 5/ip_ratio=1, 40/aq=1:1, 00
    Аудио #1
    Идентификатор : 2
    Формат : AAC
    Формат/Информация : Advanced Audio Codec
    Профиль формата : LC
    Идентификатор кодека : 40
    Продолжительность : 1 ч. Время пошло, сказал кто то из толпы, к чему не понятно. 2 м.
    Вид битрейта : Постоянный
    Битрейт : 160 Кбит/сек
    Каналы : 2 канала
    Расположение каналов : Front: L R
    Частота : 48, 0 КГц
    Метод сжатия : С потерями
    Размер потока : 71, 7 Мбайт (9%)
    Язык : Russian
    Аудио #2
    Идентификатор : 3
    Формат : AAC
    Формат/Информация : Advanced Audio Codec
    Профиль формата : LC
    Идентификатор кодека : 40
    Продолжительность : 59 м.
    Вид битрейта : Постоянный
    Битрейт : 160 Кбит/сек
    Каналы : 2 канала
    Расположение каналов : Front: L R
    Частота : 48, 0 КГц
    Метод сжатия : С потерями
    Размер потока : 68, 6 Мбайт (9%)
    Язык : English


    Скриншоты для ознакомления




    Черные паруса/Black Sails (2016) HDTVRip [H.264] (сезон 3, серии 1 из 10) BaibaKo [MP4|720x400]
    загрузка...
    Рейтинг →
     (голосов: 1, оценка 4/5, голосовать можно 1 раз )

    Другие торренты по теме:

  • Черные паруса (Black Sails) / (Сезон 1, серии 1-8 из 8) LostFilm (2014) [MP4|1280x720] <HDTVRip H.264> скачать через торрент бесплатно
  • Черные паруса / Black Sails (2015) HDTV [H.264 / 720p-LQ] (сезон 2, серии 1 из 10) (BaibaKo) (обновляемая)
  • Черные паруса (Black Sails) / (Сезон 2, серия 1 из 10) BaibaKo (2015) [MP4|720x400] <HDTVRip [H.264]>
  • Черные паруса / Black Sails (2015) WEB-DL [H.264 / 720p-LQ] (сезон 2, серии 1 из 10) (LostFilm) (обновляемая) скачать через торрент бесплатно
  • Черные паруса (Black Sails) / (Сезон 2, серия 1 из 10) LostFilm (2015) [MP4|1280x720] <HDTVRip [H.264]> скачать через торрент бесплатно
  • Черные паруса / Black Sails (2016) HDTV [H.264 / 720p-LQ] (сезон 3, серии 1 из 10) BaibaKo (обновляемая)
  • Черные паруса / Black Sails (2016) HDTVRip [H.264] (сезон 3, серии 1 из 10) LostFilm [MP4|1280x720]
  • Черные паруса / Black Sails (2017) WEBRip [H.264 / 1080p] (сезон 4, серии 1 из 10) SDI Media (обновляемая)


    • Комментарии (0):

      Информация

      Информация

        Посетители, находящиеся в группе Гости, не могут оставлять комментарии в данной новости.

        ↓ Меню




        ↓ Опрос

        Вы добавили сайт в закладки?
        Да
        Нет


        Top 10 за месяц (КПК и мобильные)