.
Авторизация | Регистрация
Хочешь лучшие торренты? Добавь свой email!
Добавить

Торрент скачать бесплатно

» » 100 / Сотня / The 100 (2016) WEB-DLRip [H.264] (сезон 3, серии 1 из 16) LostFilm [MP4|1280x720] торрент скачать бесплатно




    100 / Сотня / The 100 (2016) WEB-DLRip [H.264] (сезон 3, серии 1 из 16) LostFilm [MP4|1280x720] торрент скачать бесплатно

    Опубликовал: Админ | Дата: 24-01-2016, 19:32 | Просмотров: 104

    Производство: США
    Жанр: Фантастика, Драма, Приключения
    Режиссер: Дин Уайт, Джон Беринг, Милан Чейлов
    Актеры: Элиза Тейлор-Коттер, Мари Авгеропулос, Сачин Сахель, Линдси Морган, Женевьев Бюкнер, Ричард Хэрмон, Джарод Джозеф, Челси Рейст, Крис Браунинг, Джош Ссеттуба и др.

    Описание

    События в сериале начинают разворачиваться по прошествии девяносто семи лет после того как всю цивилизацию уничтожила страшная атомная война. Высоко в космосе на орбите Земли летает большой космический корабль, именно здесь находятся те, кто выжил после страшной катастрофы. Они единственные кто пережил этот ужасный катаклизм который устроило человечество. Именно с этого последнего пристанища людей на Землю отправляют космический челнок на котором находятся сто малолетних преступников…

    Продолжительность: ~ 00: 43: 00 серия
    Качество видео: WEB-DLRip 720p
    Перевод: Многоголосый закадровый, профессиональный -LostFilm
    Видео: AVC/H.264 (High@L4.1 ), 1280x720 (16: 9), ~4000 Кбит/сек
    Аудио: AAC, 2 канала, 243 Кбит/сек - русский (многоголосый закадровый)
    Код:

    Полное имя : D:The_Hundred_s3_WEB-DL720p_x264_LostFilm_[NNM-CLUB]The.Hundred.S03E01.720p.WEB.rus.LostFilm.TV.mp4
    Формат : MPEG-4
    Профиль формата : Base Media
    Идентификатор кодека : isom
    Размер файла : 1, 25 Гбайт
    Продолжительность : 42 м.
    Режим общего битрейта : Переменный
    Общий поток : 4186 Кбит/сек
    Коллекция : Сотня
    Сезон : 3
    Альбом : Сотня, Сезон 3
    Альбом/Исполнитель : Сотня
    Часть : 1
    Часть/Положение : 3
    Трек : Ван\'эда. Часть 1
    Трек/Положение : 1
    Исполнитель : Сотня
    Жанр : Sci-Fi Fantasy
    Тип содержимого : TV Show
    Дата записи : 2016
    Дата кодирования : UTC 2016-01-22 19:07:54
    Дата пометки : UTC 2016-01-22 19:07:54
    Программа кодирования : Yamb 2.1.0.0 [http://yamb.unite-video.com]/LostCoder
    Правообладатель : LostFilm.TV (c)
    Обложка : Yes
    Примечание : После ядерной войны прошло 97 лет. Остатки человечества, укрывшиеся на космической станции Ковчег, решают вернуться на Землю. О таком странном сюжете не догадывалась даже Верка Сердючка. Чтобы узнать,
    Part_ID : 301
    Видео
    Идентификатор : 1
    Формат : AVC
    Формат/Информация : Advanced Video Codec
    Профиль формата :High@L4.1
    Параметр CABAC формата : Нет
    Параметр ReFrames формата : 4 кадра
    Идентификатор кодека : avc1
    Идентификатор кодека/Информация : Advanced Video Coding
    Продолжительность : 42 м.
    Битрейт : 4000 Кбит/сек
    Максимальный битрейт : 6381 Кбит/сек
    Ширина : 1280 пикселей
    Высота : 720 пикселей
    Соотношение сторон : 16:9
    Режим частоты кадров : Постоянный
    Частота кадров : 23, 976 кадра/сек
    Цветовое пространство : YUV
    Субдискретизация насыщенности : 4:2:0
    Битовая глубина : 8 бит
    Тип развёртки : Прогрессивная
    Бит/(Пиксели*Кадры) : 0.181
    Размер потока : 1, 17 Гбайт (94%)
    Заголовок : Imported with GPAC 0.4.6-DEV (internal rev. 5)
    Библиотека кодирования : x264 core 112 r1834 a51816a
    Настройки программы : cabac=0/ref=3/deblock=1:0:0/analyse=0x3:0x113/me=hex/subme=7/psy=1/psy_rd=1.00:0.00/mixed_ref=1/me_range=16/chroma_me=1/trellis=1/8x8dct=1/cqm=0/deadzone=21, 11/fast_pskip=1/chroma_qp_offset=-2/threads=12/sliced_threads=0/nr=0/decimate=1/interlaced=0/constrained_intra=0/bframes=3/b_pyramid=2/b_adapt=1/b_bias=0/direct=1/weightb=1/open_gop=0/weightp=2/keyint=250/keyint_min=25/scenecut=40/intra_refresh=0/rc_lookahead=40/rc=abr/mbtree=1/bitrate=4000/ratetol=1.0/qcomp=0.60/qpmin=0/qpmax=51/qpstep=4/vbv_maxrate=5000/vbv_bufsize=2000/ip_ratio=1.40/aq=1:1.00/nal_hrd=none
    Дата кодирования : UTC 2016-01-22 17:14:01
    Дата пометки : UTC 2016-01-22 19:08:00
    Аудио
    Идентификатор : 2
    Формат : AAC
    Формат/Информация : Advanced Audio Codec
    Профиль формата : LC
    Идентификатор кодека : 40
    Продолжительность : 42 м.
    Вид битрейта : Переменный
    Битрейт : 243 Кбит/сек
    Максимальный битрейт : 307 Кбит/сек
    Каналы : 2 канала
    Расположение каналов : Front: L R
    Частота : 48, 0 КГц
    Метод сжатия : С потерями
    Размер потока : 74, 1 Мбайт (6%)
    Дата кодирования : UTC 2016-01-22 19:07:58
    Дата пометки : UTC 2016-01-22 19:08:00


    Скриншоты для ознакомления




    100/Сотня/The 100 (2016) WEB-DLRip [H.264] (сезон 3, серии 1 из 16) LostFilm [MP4|1280x720]
    загрузка...
    Рейтинг →
     (голосов: 1, оценка 5/5, голосовать можно 1 раз )

    Другие торренты по теме:

  • 100 / Сотня / The 100 (2014) (Сезон 2, серия 1 из 16) WEB-DLRip [BaibaKo] (Обновляемая)
  • 100 / Сотня / The 100 (2014) WEB-DLRip (сезон 2, серии 1 из 16) LostFilm (обновляемая) скачать через торрент бесплатно
  • 100 / Сотня / The 100 (2014) WEB-DLRip (сезон 2, серии 1-2 из 16) AlexFilm (обновляемая) скачать через торрент бесплатно
  • Сотня / 100 / The 100 (2016) WEB-DLRip (сезон 3, серии 1 из 16) LostFilm (обновляемая)
  • Сотня / 100 / The 100 (2016) WEB-DLRip (сезон 3, серии 1 из 16) (BaibaKo) (обновляемая)
  • Сотня / 100 / The 100 (2016) WEB-DLRip (сезон 3, серии 1 из 16) AlexFilm (обновляемая)
  • 100 / Сотня / The 100 (2016) WEB-DLRip [H.264] (сезон 3, серии 1 из 16) BaibaKo [MP4|720x400]
  • Сотня / 100 / The 100 (2016) WEB-DLRip (сезон 3, серии 1 из 16) NewStudio (обновляемая)


    • Комментарии (0):

      Информация

      Информация

        Посетители, находящиеся в группе Гости, не могут оставлять комментарии в данной новости.

        ↓ Меню




        ↓ Опрос

        Вы добавили сайт в закладки?
        Да
        Нет


        Top 10 за месяц (КПК и мобильные)