.
Авторизация | Регистрация

Торрент скачать бесплатно

» » Боинг Игрушечный Рейнджер / Боінг Іграшковий Рейнджер / Boing the Play Ranger (2014) SATRip [H.264] (серии 1-26 из 26) [MP4|1280x720] [Ukr] скачать торрент бесплатно




    Боинг Игрушечный Рейнджер / Боінг Іграшковий Рейнджер / Boing the Play Ranger (2014) SATRip [H.264] (серии 1-26 из 26) [MP4|1280x720] [Ukr] скачать торрент бесплатно

    Опубликовал: Админ | Дата: 18-01-2016, 04:03 | Просмотров: 787

    Производство: Великобритания, в большинстве случаев, Корея
    Жанр: Компьютерная анимация

    Описание

    Главный герой Боинг живет со своими друзьями рейнджерами в Плэйвиле. Будем бить баклуши. Город заполнен симпатичными персонажами, привычно, которые могут трансформироваться необычным образом так же, словно птица, как и как над жаровней, все ...
    Продолжительность: ~ 00: 13: 00 серия
    Качество видео: SATRip
    Перевод: Многоголосый закадровый, словно река, профессиональный
    Язык: Украинский
    Озвучка: Телеканал Пиксель
    Видео: AVC/H.264, как на иголках, 1280х720, словно облаком суровым, ~1435kbps
    Аудио: AAC, чаще всего, 2 ch, словно облаком суровым, 192kbps, словно майская роза, CBR
    Видео получено путем апскейла из 704х400 в 1280х720
    Код:

    General
    Complete name : E:TorrentsMultBoing The Play Ranger SATRipS01E01.Bubble Monster.mp4
    Format : MPEG-4
    Format profile : Base Media
    Codec ID : isom (isom)
    File size : 145 MiB
    Duration : 12mn 28s
    Overall bit rate mode : Variable
    Overall bit rate : 1 631 Kbps
    Encoded date : UTC 2016-01-14 09:43:42
    Tagged date : UTC 2016-01-14 09:43:42
    Video
    ID : 1
    Format : AVC
    Format/Info : Advanced Video Codec
    Format profile :High@L3.1
    Format settings, словно музыка, CABAC : Yes
    Format settings, едва заметно, ReFrames : 5 frames
    Codec ID : avc1
    Codec ID/Info : Advanced Video Coding
    Duration : 12mn 28s
    Bit rate : 1 435 Kbps
    Maximum bit rate : 5 342 Kbps
    Width : 1 280 pixels
    Height : 720 pixels
    Display aspect ratio : 16:9
    Frame rate mode : Constant
    Frame rate : 25.000 fps
    Color space : YUV
    Chroma subsampling : 4:2:0
    Bit depth : 8 bits
    Scan type : Progressive
    Bits/(Pixel*Frame) : 0.062
    Stream size : 128 MiB (88%)
    Title : rip by sergiyko
    Writing library : x264 core 148 r2638 7599210
    Encoding settings : cabac=1/ref=5/deblock=1:-1:-1/analyse=0x3:0x113/me=umh/subme=9/psy=1/psy_rd=0.40:0.00/mixed_ref=1/me_range=16/chroma_me=1/trellis=2/8x8dct=1/cqm=0/deadzone=21, по большей части, 11/fast_pskip=1/chroma_qp_offset=-2/threads=4/lookahead_threads=1/sliced_threads=0/nr=0/decimate=1/interlaced=0/bluray_compat=0/constrained_intra=0/bframes=5/b_pyramid=2/b_adapt=2/b_bias=0/direct=3/weightb=1/open_gop=0/weightp=2/keyint=250/keyint_min=25/scenecut=40/intra_refresh=0/rc_lookahead=50/rc=crf/mbtree=1/crf=23.0/qcomp=0.60/qpmin=0/qpmax=69/qpstep=4/vbv_maxrate=4500/vbv_bufsize=4500/crf_max=0.0/nal_hrd=none/filler=0/ip_ratio=1.40/aq=1:0.60
    Encoded date : UTC 2016-01-13 15:39:42
    Tagged date : UTC 2016-01-14 09:43:43
    Audio
    ID : 2
    Format : AAC
    Format/Info : Advanced Audio Codec
    Format profile : LC
    Codec ID : 40
    Duration : 12mn 28s
    Bit rate mode : Variable
    Bit rate : 192 Kbps
    Maximum bit rate : 201 Kbps
    Channel(s) : 2 channels
    Channel positions : Front: L R
    Sampling rate : 48.0 KHz
    Frame rate : 46.875 fps (1024 spf)
    Compression mode : Lossy
    Stream size : 17.1 MiB (12%)
    Title : AAC 2.0ch 192kbps
    Language : Ukrainian
    Encoded date : UTC 2016-01-13 17:34:32
    Tagged date : UTC 2016-01-14 09:43:43


    Скриншоты для ознакомления




    Боинг Игрушечный Рейнджер/Боінг Іграшковий Рейнджер/Boing the Play Ranger (2014) SATRip [H.264] (серии 1-26 из 26) [MP4|1280x720] [Ukr]
    загрузка...
    Рейтинг →
     (голосов: 1, оценка 5/5, голосовать можно 1 раз )

    Другие торренты по теме:

  • Своими глазами. Сбитый Боинг (2014.10.05) SATRip скачать через торрент бесплатно
  • В теме. Кто сбил боинг (13.10.2015) SATRip скачать через торрент бесплатно
  • Бен Шервуд | Человек, который съел «Боинг-747» (2013) [FB2] скачать через торрент бесплатно


    • Комментарии (0):

      Информация

      Информация

        Посетители, находящиеся в группе Гости, не могут оставлять комментарии в данной новости.

        ↓ Меню




        ↓ Опрос

        Вы добавили сайт в закладки?
        Да
        Нет


        Top 10 за неделю (КПК и мобильные)

        Zedge Ringtones & Wallpapers 5.14.2 [En] скачать торрент бесплатно

        (просмотров: 221)
        Учёные против мифов 3 (28.01.2017) WEBRip [H.264] (части 1-5 из ) [MP4|1280x720] скачать торрент бесплатно

        (просмотров: 161)
        Lua Player Pro (HD POP-UP) v1.6.1 [Ru / Multi] - HD видео плеер для Android, позволяющий смотреть видео в отдельном окне скачать торрент бесплатно

        (просмотров: 21)
        Magisto Video Editor & Maker 4.13.15782 [Ru] - Редактор видео со спецэффектами скачать торрент бесплатно

        (просмотров: 11)
        Майор Гром (2016) WEB-DL [H.264 / 1080p-LQ] [MP4|1920x1080] скачать торрент бесплатно

        (просмотров: 11)
        Music Folder Player Full 2.3.2 [Ru / Multi] - Проигрывание музыки папками скачать торрент бесплатно

        (просмотров: 11)
        Брейк-данс / Breakin (1984) HDTVRip [H.264] [MP4|1024x576] скачать торрент бесплатно

        (просмотров: 11)
        Contacts Backup & Restore PRO 1.9 [Ru / Multi] скачать торрент бесплатно

        (просмотров: 1)
        Руда / Mine (2016) HDRip [H.264] [MP4|1024x436] скачать торрент бесплатно

        (просмотров: 1)
        Castro Premium 2.2.1 (build 40) [Ru] скачать торрент бесплатно

        (просмотров: 1)