.
Авторизация | Регистрация
Хочешь лучшие торренты? Добавь свой email!
Добавить

Торрент скачать бесплатно

» » Нереальная история. Менделеев и раствор (2012-2013) WEBRip [H.264] (серии 1-13 из 13) [MP4|720x404] [нарезка] торрент скачать бесплатно




    Нереальная история. Менделеев и раствор (2012-2013) WEBRip [H.264] (серии 1-13 из 13) [MP4|720x404] [нарезка] торрент скачать бесплатно

    Опубликовал: Админ | Дата: 17-01-2016, 04:13 | Просмотров: 431

    Телекомпания: СТС
    Жанр: Сатира, юмор

    Описание

    Известный учёный Д.И.Менделеев(Эдуард Радзюкевич) после изобретения водки понял, насколько растворъ коварен, теперь он пытается придумать противоядие, чтобы остановить эту бомбу замедленного действия, проводя все эксперименты с раствором на себе, а помогает ему в этом его помощница Варвара(Татьяна Рыбинец) .
    Продолжительность: ~00: 06: 00 серия
    Качество видео: WEBRip
    Видео: AVC/H.264, 720х404, ~1150 Kbps
    Аудио: AAC, 2 ch, 192 Kbps, VBR
    Код:

    Format : MPEG-4
    Format profile : Base Media/Version 2
    Codec ID : mp42
    Overall bit rate mode : Variable
    Overall bit rate : 1 309 Kbps
    Encoded date : UTC 2013-02-18 09:23:54
    Tagged date : UTC 2013-02-18 09:23:54
    ©TIM : 00:00:00:00
    ©TSC : 25
    ©TSZ : 1
    Video
    ID : 1
    Format : AVC
    Format/Info : Advanced Video Codec
    Format profile :Main@L3.2
    Format settings, CABAC : Yes
    Format settings, ReFrames : 3 frames
    Codec ID : avc1
    Codec ID/Info : Advanced Video Coding
    Bit rate mode : Constant
    Bit rate : 1 150 Kbps
    Width : 720 pixels
    Height : 404 pixels
    Display aspect ratio : 16:9
    Frame rate mode : Constant
    Frame rate : 25.000 fps
    Standard : PAL
    Color space : YUV
    Chroma subsampling : 4:2:0
    Bit depth : 8 bits
    Scan type : Progressive
    Bits/(Pixel*Frame) : 0.158
    Stream size : 55.3 MiB (85%)
    Language : English
    Encoded date : UTC 2013-02-18 09:23:54
    Tagged date : UTC 2014-02-18 21:45:35
    Color range : Limited
    Audio
    ID : 2
    Format : AAC
    Format/Info : Advanced Audio Codec
    Format profile : LC
    Codec ID : 40
    Bit rate mode : Variable
    Bit rate : 192 Kbps
    Maximum bit rate : 302 Kbps
    Channel(s) : 2 channels
    Channel positions : Front: L R
    Sampling rate : 48.0 KHz
    Compression mode : Lossy
    Stream size : 9.39 MiB (14%)
    Source stream size : 9.39 MiB (14%)
    Language : English
    Encoded date : UTC 2013-02-18 09:23:54
    Tagged date : UTC 2014-02-18 21:45:35


    Скриншоты для ознакомления




    Нереальная история. Менделеев и раствор (2012-2013) WEBRip [H.264] (серии 1-13 из 13) [MP4|720x404] [нарезка]
    загрузка...
    Рейтинг →
     (голосов: 1, оценка 5/5, голосовать можно 1 раз )

    Другие торренты по теме:

  • Нереальная история (2011-2013) SATRip [1-3 сезон: 1-60 выпуск из 60] скачать через торрент бесплатно
  • Нереальная история. ДПС (2011) WEBRip [H.264] (серии 1-9 из 9) [MP4|720x404] [нарезка]
  • Нереальная история (2011-2013) WEBRip [H.264] (сезон 1-3, серии 1-60 из 60) [MP4|720х404]


    • Комментарии (0):

      Информация

      Информация

        Посетители, находящиеся в группе Гости, не могут оставлять комментарии в данной новости.

        ↓ Меню




        ↓ Опрос

        Вы добавили сайт в закладки?
        Да
        Нет


        Top 10 за месяц (КПК и мобильные)