.
Авторизация | Регистрация
Хочешь лучшие торренты? Добавь свой email!
Добавить

Торрент скачать бесплатно

» » В Филадельфии всегда солнечно / Its Always Sunny in Philadelphia (2016) WEB-DLRip [H.264] (Сезон 11, серии 1-2 из 10) LostFilm [MP4|1280x718] торрент скачать бесплатно




    В Филадельфии всегда солнечно / Its Always Sunny in Philadelphia (2016) WEB-DLRip [H.264] (Сезон 11, серии 1-2 из 10) LostFilm [MP4|1280x718] торрент скачать бесплатно

    Опубликовал: Админ | Дата: 17-01-2016, 04:13 | Просмотров: 1333

    Производство: США
    Жанр: Комедия
    Режиссер: Тодд Бирман, Хит Калленс
    Актеры: Чарли Дэй, Гленн Хоуертон, Роб МакЭлхенни, Кэйтлин Олсен, Дэнни ДеВито, Мэри Элизабет Эллис, Дэвид Хорнсби, Артемис Пебдани, Линн Мари Стюарт, Сэнди Мартин, Бриттани Дэниэл, Джимми Симпсон, Нат Муни, Трэвис Шульдт, Тэзи Сёрфес, Грегори Скотт Камминс, Брайан Унгер, Дэвид Гурейра, Шон Пол Костильо, Т.Дж. Хобан, Энн Арчер, Эндрю Фридман, Кайл Дэвис, Катрин Рейтман, Лэнс Барбер

    Описание

    Комедийный сериал Роба МакЭлхенни повествует о четырех молодых друзьях - владельцах ирландского паба в депрессивном районе Филадельфии. Бизнес у ребят идет не слишком успешно, но это не мешает им регулярно находить приключения на отдельные части своего тела.
    Главные герои ситкома - Мак, Чарли, Деннис и Ди - аморальны, беспринципны, неполиткорректны и готовы врать напропалую ради достижения собственных целей. К тому же постоянно воюют друг с другом. Впрочем, в большинстве случаев эти качества не приводят их ни к чему хорошему. В результате вся шайка регулярно попадает в самые нелепейшие ситуации. Одну из главных ролей в сериале исполнил Денни ДеВито.

    Дата мировой премьеры: 6 января 2016
    Продолжительность: ~ 00: 20: 00 серия
    Качество видео: WEB-DLRip 720p
    Перевод: Многоголосый закадровый, профессиональный -LostFilm
    Видео: AVC/H.264 (High@L3.1 ), 1280x718 (16: 9), ~4000 Кбит/сек
    Аудио: AAC, 2 канала, 220 Кбит/сек - русский (многоголосый закадровый)
    Код:

    Полное имя : F:Its_Always_Sunny.in_Philadelphia_s11_WEB-DL720p_x264_LostFilm_[NNM-CLUB]Its.Always.Sunny.in.Philadelphia.S11E01.720p.WEB.rus.LostFilm.TV.mp4
    Формат : MPEG-4
    Профиль формата : Base Media
    Идентификатор кодека : isom
    Размер файла : 640 Мбайт
    Продолжительность : 20 м.
    Режим общего битрейта : Переменный
    Общий поток : 4322 Кбит/сек
    Коллекция : В Филадельфии всегда солнечно
    Сезон : 11
    Альбом : В Филадельфии всегда солнечно, Сезон 11
    Альбом/Исполнитель : В Филадельфии всегда солнечно
    Часть : 1
    Часть/Положение : 11
    Трек : ЧарДиМакДеннис-2: электрик бугалу
    Трек/Положение : 1
    Исполнитель : В Филадельфии всегда солнечно
    Жанр : Comedy
    Тип содержимого : TV Show
    Дата записи : 2016
    Дата кодирования : UTC 2016-01-09 18:16:11
    Дата пометки : UTC 2016-01-09 18:16:11
    Программа кодирования : Yamb 2.1.0.0 [http://yamb.unite-video.com]/LostCoder
    Правообладатель : LostFilm.TV (c)
    Обложка : Yes
    Примечание : Этот ситком повествует о четырех друзьях, которые держат ирландский бар в не самом лучшем районе Филадельфии. Они враждебны и аморальны друг к другу, всегда ссорятся, врут и пытаются что-то друг другу доказать, попадая из-за этого в самые нелепые ситуации
    Part_ID : 1101
    Видео
    Идентификатор : 1
    Формат : AVC
    Формат/Информация : Advanced Video Codec
    Профиль формата :High@L3.1
    Параметр CABAC формата : Нет
    Параметр ReFrames формата : 2 кадра
    Идентификатор кодека : avc1
    Идентификатор кодека/Информация : Advanced Video Coding
    Продолжительность : 20 м.
    Битрейт : 4000 Кбит/сек
    Максимальный битрейт : 11, 5 Мбит/сек
    Ширина : 1280 пикселей
    Высота : 718 пикселей
    Соотношение сторон : 16:9
    Режим частоты кадров : Переменный
    Частота кадров : 23, 976 кадра/сек
    Минимальная частота кадров : 23, 974 кадра/сек
    Максимальная частота кадров : 23, 981 кадра/сек
    Цветовое пространство : YUV
    Субдискретизация насыщенности : 4:2:0
    Битовая глубина : 8 бит
    Тип развёртки : Прогрессивная
    Бит/(Пиксели*Кадры) : 0.182
    Размер потока : 607 Мбайт (95%)
    Библиотека кодирования : x264 core 112 r1834 a51816a
    Настройки программы : cabac=0/ref=3/deblock=1:0:0/analyse=0x1:0x111/me=hex/subme=7/psy=1/psy_rd=1.00:0.00/mixed_ref=1/me_range=16/chroma_me=1/trellis=1/8x8dct=0/cqm=0/deadzone=21, 11/fast_pskip=1/chroma_qp_offset=-2/threads=12/sliced_threads=0/nr=0/decimate=1/interlaced=0/constrained_intra=0/bframes=3/b_pyramid=2/b_adapt=1/b_bias=0/direct=1/weightb=1/open_gop=0/weightp=2/keyint=250/keyint_min=25/scenecut=40/intra_refresh=0/rc_lookahead=40/rc=abr/mbtree=1/bitrate=4000/ratetol=1.0/qcomp=0.60/qpmin=0/qpmax=51/qpstep=4/vbv_maxrate=5000/vbv_bufsize=2000/ip_ratio=1.40/aq=1:1.00/nal_hrd=none
    Язык : English
    Дата пометки : UTC 2016-01-09 18:17:18
    Основные цвета : BT.709
    Характеристики трансфера : BT.709
    Коэффициенты матрицы : BT.709
    Аудио
    Идентификатор : 2
    Формат : AAC
    Формат/Информация : Advanced Audio Codec
    Профиль формата : LC
    Идентификатор кодека : 40
    Продолжительность : 20 м.
    Вид битрейта : Переменный
    Битрейт : 219 Кбит/сек
    Максимальный битрейт : 313 Кбит/сек
    Каналы : 2 канала
    Расположение каналов : Front: L R
    Частота : 48, 0 КГц
    Метод сжатия : С потерями
    Размер потока : 32, 4 Мбайт (5%)
    Дата кодирования : UTC 2016-01-09 18:17:18
    Дата пометки : UTC 2016-01-09 18:17:18


    Скриншоты для ознакомления




    В Филадельфии всегда солнечно/Its Always Sunny in Philadelphia (2016) WEB-DLRip [H.264] (Сезон 11, серии 1-2 из 10) LostFilm [MP4|1280x718]
    загрузка...
    Рейтинг →
     (голосов: 1, оценка 5/5, голосовать можно 1 раз )

    Другие торренты по теме:

  • В Филадельфии всегда солнечно / Its Always Sunny in Philadelphia (2015) WEB-DLRip (сезон 10, серии 1 из 10) LostFilm (обновляемая)
  • В Филадельфии всегда солнечно / Its Always Sunny in Philadelphia (2015) WEB-DL [H.264 / 720p-LQ] (Сезон 10, серия 1 из 10) (LostFilm) (обновляемая) скачать через торрент бесплатно
  • В Филадельфии всегда солнечно / Its Always Sunny in Philadelphia (2016) WEB-DLRip (сезон 11, серии 1 из 10) LostFilm (обновляемая) скачать через торрент бесплатно
  • В Филадельфии всегда солнечно / Its Always Sunny in Philadelphia (2016) WEB-DLRip [H.264] (Сезон 11, серии 1-10) [MP4 720x400] [EN / RU Sub] скачать через торрент бесплатно
  • В Филадельфии всегда солнечно / Its Always Sunny in Philadelphia (2016) WEB-DLRip [H.264 / 1080p-LQ] (сезон 11, серии 1 из 10) LostFilm (обновляемая) скачать через торрент бесплатно


    • Комментарии (0):

      Информация

      Информация

        Посетители, находящиеся в группе Гости, не могут оставлять комментарии в данной новости.

        ↓ Меню




        ↓ Опрос

        Вы добавили сайт в закладки?
        Да
        Нет


        Top 10 за месяц (КПК и мобильные)