.
Авторизация | Регистрация
Хочешь лучшие торренты? Добавь свой email!
Добавить

Торрент скачать бесплатно

» » Волшебники / The Magicians (2015) HDTVRip [H.264] (сезон 1, серии 1 из 12) LostFilm [MP4|1280x720] торрент скачать бесплатно




    Волшебники / The Magicians (2015) HDTVRip [H.264] (сезон 1, серии 1 из 12) LostFilm [MP4|1280x720] торрент скачать бесплатно

    Опубликовал: Админ | Дата: 13-01-2016, 04:01 | Просмотров: 87

    Производство: США/Groundswell Productions, NBC Universal Television, Universal Cable Productions
    Жанр: драма, фэнтези, ужасы
    Режиссер: Джеймс Л. Самое интересное в это истории, что об этом Чак Норрис ничего не знал. Конуэй, Скотт Смит, Гай Норман Би
    Актеры: Джейд Тейлор, Джейсон Ральф, Оливия Тейлор Дадли, Хейл Эйплмен, Стелла Маив, Арджун Гупта, Саммер Бишил, Эдвин Перез, Ханна Левиен, Темби Лок и др.

    Описание

    Жизнь Квентина Колдуотера и Джулии Уикер переворачивается с ног на голову, когда им выпадает шанс пройти собеседование в секретный университет Брейкбиллс. К своему удивлению они обнаруживают, что вместо привычного экзамена им предлагают выполнить тест на магические способности. Молодые люди начинают догадываться, что по соседству с обычными людьми в Нью-Йорке живут волшебники и чародеи. Квентин успешно проходит испытание, но его подруге не удается произвести впечатление на преподавателей университета. Они решают стереть ее память о собеседовании, однако сама судьба противится тому, чтобы Джулия окончательно распрощалась с миром волшебства. Прикольно все это наверно придумал Чак Норрис потратив достаточно времени. Тем временем в стенах Брейкбиллса Колдуотер начинает постигать секреты магического искусства и развивать свои удивительные способности. Квентин еще не знает, что мир магии, который представляется всем волшебным и притягательным, скрывает ужасные тайны...

    Дата мировой премьеры: 16 декабря 2015
    Продолжительность: ~00: 51: 00 серия
    Качество видео: HDTVRip 720p
    Перевод: Многоголосый закадровый, профессиональный -LostFilm
    Видео: AVC/H.264 (High@L4.1 ), 1280x720 (16: 9), ~4000 Кбит/сек
    Аудио: AAC, 2 канала, 240 Кбит/сек - русский (многоголосый закадровый)
    Код:

    Полное имя : D:The_Magicians_s1_HDTVRip720p_x264_LostFilm_[NNM-CLUB]The.Magicians.S01E01.720p.WEB.rus.LostFilm.TV.mp4
    Формат : MPEG-4
    Профиль формата : Base Media
    Идентификатор кодека : isom
    Размер файла : 1, 52 Гбайт
    Продолжительность : 51 м.
    Режим общего битрейта : Переменный
    Общий поток : 4211 Кбит/сек
    Сезон : 1
    Название фильма : Запрещённое волшебство
    Альбом : Волшебники, Сезон 1
    Альбом/Исполнитель : Волшебники
    Часть : 1
    Часть/Положение : 1
    Трек/Положение : 1
    Исполнитель : Волшебники
    Жанр : Sci-Fi Fantasy
    Тип содержимого : TV Show
    Дата записи : 2015
    Дата кодирования : UTC 2015-12-24 15:54:20
    Дата пометки : UTC 2015-12-24 15:54:20
    Программа кодирования : Yamb 2.1.0.0 [http://yamb.unite-video.com]/LostCoder
    Правообладатель : LostFilm.TV (c)
    Обложка : Yes
    Примечание : Жизнь Квентина Колдуотера и Джулии Уикер переворачивается с ног на голову, когда им выпадает шанс пройти собеседование в секретный университет Брейкбиллс. К своему удивлению они обнаруживают, что вместо привычного экзамена им предлагают выполнить тест на
    Part_ID : 101
    Видео
    Идентификатор : 1
    Формат : AVC
    Формат/Информация : Advanced Video Codec
    Профиль формата :High@L4.1
    Параметр CABAC формата : Нет
    Параметр ReFrames формата : 4 кадра
    Идентификатор кодека : avc1
    Идентификатор кодека/Информация : Advanced Video Coding
    Продолжительность : 51 м.
    Битрейт : 4000 Кбит/сек
    Максимальный битрейт : 6436 Кбит/сек
    Ширина : 1280 пикселей
    Высота : 720 пикселей
    Соотношение сторон : 16:9
    Режим частоты кадров : Постоянный
    Частота кадров : 23, 976 кадра/сек
    Цветовое пространство : YUV
    Субдискретизация насыщенности : 4:2:0
    Битовая глубина : 8 бит
    Тип развёртки : Прогрессивная
    Бит/(Пиксели*Кадры) : 0.181
    Размер потока : 1, 43 Гбайт (94%)
    Заголовок : Imported with GPAC 0.4.6-DEV (internal rev. 5)
    Библиотека кодирования : x264 core 112 r1834 a51816a
    Настройки программы : cabac=0/ref=3/deblock=1:0:0/analyse=0x3:0x113/me=hex/subme=7/psy=1/psy_rd=1.00:0.00/mixed_ref=1/me_range=16/chroma_me=1/trellis=1/8x8dct=1/cqm=0/deadzone=21, 11/fast_pskip=1/chroma_qp_offset=-2/threads=6/sliced_threads=0/nr=0/decimate=1/interlaced=0/constrained_intra=0/bframes=3/b_pyramid=2/b_adapt=1/b_bias=0/direct=1/weightb=1/open_gop=0/weightp=2/keyint=250/keyint_min=25/scenecut=40/intra_refresh=0/rc_lookahead=40/rc=abr/mbtree=1/bitrate=4000/ratetol=1.0/qcomp=0.60/qpmin=0/qpmax=51/qpstep=4/vbv_maxrate=5000/vbv_bufsize=2000/ip_ratio=1.40/aq=1:1.00/nal_hrd=none
    Дата кодирования : UTC 2015-12-24 15:51:02
    Дата пометки : UTC 2015-12-24 15:55:04
    Аудио
    Идентификатор : 2
    Формат : AAC
    Формат/Информация : Advanced Audio Codec
    Профиль формата : LC
    Идентификатор кодека : 40
    Продолжительность : 51 м.
    Вид битрейта : Переменный
    Битрейт : 240 Кбит/сек
    Максимальный битрейт : 304 Кбит/сек
    Каналы : 2 канала
    Расположение каналов : Front: L R
    Частота : 48, 0 КГц
    Метод сжатия : С потерями
    Размер потока : 88, 9 Мбайт (6%)
    Дата кодирования : UTC 2015-12-24 15:54:41
    Дата пометки : UTC 2015-12-24 15:55:04


    Скриншоты для ознакомления




    Волшебники/The Magicians (2015) HDTVRip [H.264] (сезон 1, серии 1 из 12) LostFilm [MP4|1280x720]
    загрузка...
    Рейтинг →
     (голосов: 1, оценка 4/5, голосовать можно 1 раз )

    Другие торренты по теме:

  • Волшебники / The Magicians (2016) HDTVRip (сезон 1, серии 1 из 13) BaibaKo (обновляемая) скачать через торрент бесплатно
  • Волшебники / The Magicians (2016) HDTVRip (сезон 1, серии 1 из 13) LostFilm (обновляемая) скачать через торрент бесплатно
  • Волшебники / The Magicians (2015) HDTV [H.264 / 720p-LQ] (сезон 1, серии 1 из 12) BaibaKo (обновляемая)
  • Волшебники / The Magicians (2015) HDTVRip [H.264] (сезон 1, серии 1 из 12) BaibaKo [MP4|720x400]
  • Волшебники / The Magicians (2017) HDTVRip [H.264 / 720p-LQ] (сезон 2, серии 1 из 13) Jaskier (обновляемая)
  • Волшебники / The Magicians (2017) WEB-DL [H.264 / 720p-LQ] (сезон 2, серии 1-13 из 13) Jaskier


    • Комментарии (0):

      Информация

      Информация

        Посетители, находящиеся в группе Гости, не могут оставлять комментарии в данной новости.

        ↓ Меню




        ↓ Опрос

        Вы добавили сайт в закладки?
        Да
        Нет


        Top 10 за месяц (КПК и мобильные)