.
Авторизация | Регистрация
Хочешь лучшие торренты? Добавь свой email!
Добавить

Торрент скачать бесплатно

» » В Филадельфии всегда солнечно / Its Always Sunny in Philadelphia (2016) WEB-DLRip [H.264] (Сезон 11, серии 1-10) [MP4 720x400] [EN / RU Sub] скачать через торрент бесплатно




    В Филадельфии всегда солнечно / Its Always Sunny in Philadelphia (2016) WEB-DLRip [H.264] (Сезон 11, серии 1-10) [MP4 720x400] [EN / RU Sub] скачать через торрент бесплатно

    Опубликовал: Админ | Дата: 11-01-2016, 04:02 | Просмотров: 1221

    Производство: США, 3 Art Entertainment, Bluebush Productions, RCH, Sunny Television Productions
    Жанр: Комедия
    Режиссер: Тодд Бирман, Хит Калленс
    Актеры: Чарли Дэй, Гленн Хоуертон, Роб МакЭлхенни, Кэйтлин Олсен, Дэнни ДеВито, Мэри Элизабет Эллис, Дэвид Хорнсби, Артемис Пебдани, Линн Мари Стюарт, Сэнди Мартин, Бриттани Дэниэл, Джимми Симпсон, Нат Муни, Трэвис Шульдт, Тэзи Сёрфес, Грегори Скотт Камминс, Брайан Унгер, Дэвид Гурейра, Шон Пол Костильо, Т.Дж. Хобан, Энн Арчер, Эндрю Фридман, Кайл Дэвис, Катрин Рейтман, Лэнс Барбер

    Описание

    Этот ситком повествует о четырех друзьях, которые держат ирландский бар в не самом лучшем районе Филадельфии. То же самое можно сказать и о самих героях — они враждебны и аморальны друг к другу, всегда ссорятся, врут и пытаются что-то друг другу доказать, попадая из-за этого в самые нелепые и смешнейшие ситуации.

    Продолжительность: ~ 00: 20: 00 серия
    Качество видео: WEB-DLRip
    Перевод: Отсутствует
    Вид субтитров: Отдельным файлом
    Язык субтитров: Русский
    Видео: AVC/H.264, 720x400, ~1400 Кбит/сек
    Аудио: AAC, 2 ch, 128 кбит/сек, CBR
    Код:

    Формат : MPEG-4
    Профиль формата : Base Media
    Идентификатор кодека : isom
    Размер файла : 226 Мбайт
    Продолжительность : 20 м.
    Общий поток : 1535 Кбит/сек
    Программа кодирования : Lavf56.25.101
    Видео
    Идентификатор : 1
    Формат : AVC
    Формат/Информация : Advanced Video Codec
    Профиль формата :High@L3.0
    Параметр CABAC формата : Да
    Параметр ReFrames формата : 4 кадра
    Идентификатор кодека : avc1
    Идентификатор кодека/Информация : Advanced Video Coding
    Продолжительность : 20 м.
    Битрейт : 1400 Кбит/сек
    Ширина : 720 пикселей
    Высота : 400 пикселей
    Соотношение сторон : 16:9
    Режим частоты кадров : Постоянный
    Частота кадров : 23, 976 кадра/сек
    Цветовое пространство : YUV
    Субдискретизация насыщенности : 4:2:0
    Битовая глубина : 8 бит
    Тип развёртки : Прогрессивная
    Бит/(Пиксели*Кадры) : 0.203
    Размер потока : 206 Мбайт (91%)
    Библиотека кодирования : x264 core 142 r2389 956c8d8
    Настройки программы : cabac=1/ref=3/deblock=1:0:0/analyse=0x3:0x133/me=tesa/subme=9/psy=1/psy_rd=1.00:0.00/mixed_ref=1/me_range=24/chroma_me=1/trellis=1/8x8dct=1/cqm=0/deadzone=21, 11/fast_pskip=1/chroma_qp_offset=-2/threads=6/lookahead_threads=1/sliced_threads=0/nr=0/decimate=1/interlaced=0/bluray_compat=0/constrained_intra=0/bframes=5/b_pyramid=2/b_adapt=2/b_bias=0/direct=3/weightb=1/open_gop=0/weightp=2/keyint=250/keyint_min=25/scenecut=40/intra_refresh=0/rc_lookahead=40/rc=2pass/mbtree=1/bitrate=1400/ratetol=1.0/qcomp=0.60/qpmin=10/qpmax=51/qpstep=4/cplxblur=20.0/qblur=0.5/ip_ratio=1.40/aq=1:1.00
    Аудио
    Идентификатор : 2
    Формат : AAC
    Формат/Информация : Advanced Audio Codec
    Профиль формата : LC
    Идентификатор кодека : 40
    Продолжительность : 20 м.
    Вид битрейта : Постоянный
    Битрейт : 128 Кбит/сек
    Каналы : 2 канала
    Расположение каналов : Front: L R
    Частота : 48, 0 КГц
    Метод сжатия : С потерями
    Размер потока : 18, 8 Мбайт (8%)


    Скриншоты для ознакомления




    В Филадельфии всегда солнечно/Its Always Sunny in Philadelphia (2016) WEB-DLRip [H.264] (Сезон 11, серии 1-10) [MP4 720x400] [EN/RU Sub]
    загрузка...
    Рейтинг →
     (голосов: 1, оценка 3/5, голосовать можно 1 раз )

    Другие торренты по теме:

  • В Филадельфии всегда солнечно / Its Always Sunny in Philadelphia (2015) WEB-DLRip (сезон 10, серии 1 из 10) LostFilm (обновляемая)
  • В Филадельфии всегда солнечно / Its Always Sunny in Philadelphia (2015) WEB-DL [H.264 / 720p-LQ] (Сезон 10, серия 1 из 10) (LostFilm) (обновляемая) скачать через торрент бесплатно
  • В Филадельфии всегда солнечно / Its Always Sunny in Philadelphia (2016) WEB-DLRip (сезон 11, серии 1 из 10) LostFilm (обновляемая) скачать через торрент бесплатно
  • В Филадельфии всегда солнечно / Its Always Sunny in Philadelphia (2016) WEB-DLRip [H.264 / 1080p-LQ] (сезон 11, серии 1 из 10) LostFilm (обновляемая) скачать через торрент бесплатно
  • В Филадельфии всегда солнечно / Its Always Sunny in Philadelphia (2016) WEB-DLRip [H.264] (Сезон 11, серии 1-2 из 10) LostFilm [MP4|1280x718]


    • Комментарии (0):

      Информация

      Информация

        Посетители, находящиеся в группе Гости, не могут оставлять комментарии в данной новости.

        ↓ Меню




        ↓ Опрос

        Вы добавили сайт в закладки?
        Да
        Нет


        Top 10 за месяц (КПК и мобильные)