.
Авторизация | Регистрация
Хочешь лучшие торренты? Добавь свой email!
Добавить

Торрент скачать бесплатно

» » Омен: Трилогия / The Omen: Trilogy (1976 / 1978 / 1981) BDRip [H.264] [MP4|960x408] скачать через торрент бесплатно




    Омен: Трилогия / The Omen: Trilogy (1976 / 1978 / 1981) BDRip [H.264] [MP4|960x408] скачать через торрент бесплатно

    Опубликовал: Админ | Дата: 3-01-2016, 04:15 | Просмотров: 346

    Прoизвoдство: США, Великобритания/Twentieth Century Fox Film Corporation, Twentieth Century-Fox Productions, Mace Neufeld Productions
    Жaнр: Ужасы, Детектив, Классика
    Описaние:
    Он был рожден в 6 часов 6-го дня 6-го месяца. Как предсказано в Книге Откровений, настанет Конец света, последнее противостояние сил добра и зла, и началом его будет рождение сына Сатаны в облике человеческом..
    У жены американского дипломата Роберта Торна рождается мертвый ребенок, и ее муж неспособный сообщить ей эту трагическую новость, усыновляет младенца с непонятным родимым пятном в виде трех шестерок — числа зверя. Подробности рождения ребенка остаются в секрете, но со временем становится ясно, что это необычный ребенок.
    Вокруг постоянно, при загадочных обстоятельствах, умирают люди и происходят таинственные события, после которых Роберт Торн начинает панически бояться усыновленного мальчика, за невинным ангельским лицом которого прячется безжалостная дьявольская сущность...
    Рeжиссер: Ричард Доннер
    Прoдюсер: Харви Бернхард, Мэйс Нойфельд, Чарльз Орм
    Актeры: Грегори Пек, Ли Ремик, Дэвид Уорнер, Билли Уайтлоу, Харви Стивенс, Патрик Тротон, Мартин Бенсон, Роберт Ритти, Томми Дагган, Джон Страйд
    Продoлжительность: 01: 51: 02
    Качествo видео: BDRip
    Перевoд: Профессиональный (Многоголосый закадровый), Оригинальный

    Видео: AVC/H.264 (High@L4.1), 960x408, ~1945 Kbps
    Аудио 1: AAC LC, 2.0, 156 Kbps - Русский (MVO R5)
    Аудио 2: AAC LC, 2.0, 156 Kbps - Украинский (MVO 1+1)
    Аудио 3: AAC LC, 2.0, 156 Kbps - Английский (Оригинальный)
    Код:
    General
    Complete name : D:NNM-CLUBKrekerОмен.Трилогия.BDRip for Mobile.NNM-ClubОмен 1. Антихрист.1976.BDRip.mp4
    Format : MPEG-4
    Format profile : Base Media
    Codec ID : isom (isom/avc1)
    File size : 1.88 GiB
    Duration : 1h 51mn
    Overall bit rate mode : Variable
    Overall bit rate : 2 420 Kbps
    Encoded date : UTC 2016-01-02 10:29:13
    Tagged date : UTC 2016-01-02 10:29:13
    Video
    ID : 1
    Format : AVC
    Format/Info : Advanced Video Codec
    Format profile :High@L4.1
    Format settings, CABAC : Yes
    Format settings, ReFrames : 7 frames
    Codec ID : avc1
    Codec ID/Info : Advanced Video Coding
    Duration : 1h 51mn
    Bit rate : 1 945 Kbps
    Maximum bit rate : 9 370 Kbps
    Width : 960 pixels
    Height : 408 pixels
    Display aspect ratio : 2.35:1
    Frame rate mode : Constant
    Frame rate : 23.976 (24000/1001) fps
    Color space : YUV
    Chroma subsampling : 4:2:0
    Bit depth : 8 bits
    Scan type : Progressive
    Bits/(Pixel*Frame) : 0.207
    Stream size : 1.51 GiB (80%)
    Title : OMEN_I
    Writing library : x264 core 146 r2538 121396c
    Encoding settings : cabac=1/ref=7/deblock=1:-2:-2/analyse=0x3:0x133/me=umh/subme=11/psy=1/psy_rd=1.00:0.00/mixed_ref=1/me_range=64/chroma_me=1/trellis=2/8x8dct=1/cqm=0/deadzone=21, 11/fast_pskip=0/chroma_qp_offset=-2/threads=3/lookahead_threads=1/sliced_threads=0/nr=0/decimate=1/interlaced=0/bluray_compat=0/constrained_intra=0/bframes=11/b_pyramid=2/b_adapt=2/b_bias=0/direct=3/weightb=1/open_gop=0/weightp=2/keyint=240/keyint_min=23/scenecut=40/intra_refresh=0/rc_lookahead=40/rc=crf/mbtree=0/crf=19.0/qcomp=0.60/qpmin=0/qpmax=69/qpstep=4/vbv_maxrate=20000/vbv_bufsize=25000/crf_max=0.0/nal_hrd=none/filler=0/ip_ratio=1.40/pb_ratio=1.30/aq=1:1.00
    Encoded date : UTC 2016-01-02 10:29:13
    Tagged date : UTC 2016-01-02 10:31:09
    Color range : Limited
    Matrix coefficients : BT.709
    Audio #1
    ID : 2
    Format : AAC
    Format/Info : Advanced Audio Codec
    Format profile : LC
    Codec ID : 40
    Duration : 1h 51mn
    Bit rate mode : Variable
    Bit rate : 156 Kbps
    Maximum bit rate : 175 Kbps
    Channel(s) : 2 channels
    Channel positions : Front: L R
    Sampling rate : 48.0 KHz
    Frame rate : 46.875 fps (1024 spf)
    Compression mode : Lossy
    Stream size : 124 MiB (6%)
    Language : Russian
    Encoded date : UTC 2016-01-02 10:30:12
    Tagged date : UTC 2016-01-02 10:31:09
    Audio #2
    ID : 3
    Format : AAC
    Format/Info : Advanced Audio Codec
    Format profile : LC
    Codec ID : 40
    Duration : 1h 51mn
    Bit rate mode : Variable
    Bit rate : 156 Kbps
    Maximum bit rate : 168 Kbps
    Channel(s) : 2 channels
    Channel positions : Front: L R
    Sampling rate : 48.0 KHz
    Frame rate : 46.875 fps (1024 spf)
    Compression mode : Lossy
    Stream size : 124 MiB (6%)
    Language : Ukrainian
    Encoded date : UTC 2016-01-02 10:30:32
    Tagged date : UTC 2016-01-02 10:31:09
    Audio #3
    ID : 4
    Format : AAC
    Format/Info : Advanced Audio Codec
    Format profile : LC
    Codec ID : 40
    Duration : 1h 51mn
    Bit rate mode : Variable
    Bit rate : 156 Kbps
    Maximum bit rate : 180 Kbps
    Channel(s) : 2 channels
    Channel positions : Front: L R
    Sampling rate : 48.0 KHz
    Frame rate : 46.875 fps (1024 spf)
    Compression mode : Lossy
    Stream size : 124 MiB (6%)
    Language : English
    Encoded date : UTC 2016-01-02 10:30:51
    Tagged date : UTC 2016-01-02 10:31:09
    Код:
    x264 [info]: profile High, level 4.1
    x264 [info]: frame I:1093 Avg QP:16.93 size: 49850
    x264 [info]: frame P:28556 Avg QP:18.07 size: 20286
    x264 [info]: frame B:130093 Avg QP:20.35 size: 7578
    x264 [info]: consecutive B-frames: 1.1% 1.1% 2.8% 16.0% 11.3% 34.8% 7.9% 13.4% 2.9% 1.8% 2.1% 4.7%
    x264 [info]: mb I I16..4: 3.9% 83.9% 12.2%
    x264 [info]: mb P I16..4: 0.4% 11.4% 1.0% P16..4: 31.0% 38.1% 13.4% 1.5% 0.1% skip: 3.1%
    x264 [info]: mb B I16..4: 0.0% 1.3% 0.1% B16..8: 39.6% 20.9% 3.3% direct: 5.6% skip:29.1% L0:46.9% L1:45.6% BI: 7.5%
    x264 [info]: 8x8 transform intra:89.3% inter:62.4%
    x264 [info]: direct mvs spatial:100.0% temporal:0.0%
    x264 [info]: coded y, uvDC, uvAC intra: 93.8% 91.9% 74.3% inter: 26.4% 29.8% 6.8%
    x264 [info]: i16 v, h, dc, p: 35% 12% 7% 46%
    x264 [info]: i8 v, h, dc, ddl, ddr, vr, hd, vl, hu: 10% 6% 10% 10% 14% 13% 13% 11% 13%
    x264 [info]: i4 v, h, dc, ddl, ddr, vr, hd, vl, hu: 12% 6% 5% 9% 15% 15% 14% 11% 13%
    x264 [info]: i8c dc, h, v, p: 48% 19% 16% 18%
    x264 [info]: Weighted P-Frames: Y:12.1% UV:7.1%
    x264 [info]: ref P L0: 42.3% 10.1% 19.6% 8.8% 7.5% 5.7% 5.4% 0.6% 0.0%
    x264 [info]: ref B L0: 64.8% 16.7% 9.6% 5.3% 2.6% 1.0%
    x264 [info]: ref B L1: 89.1% 10.9%
    x264 [info]: kb/s:1944.69
    Оскар, 1977 год
    Победитель (1):
    Лучший оригинальный саундтрек
    Золотой глобус, 1977 год
    Номинации (1):
    Лучший дебютант (Харви Стивенс)
    Британская академия, 1977 год
    Номинации (1):
    Лучшая женская роль второго плана (Билли Уайтлоу)
    Сатурн, 1977 год
    Номинации (1):
    Лучший фильм ужасов
    Сразу после выхода картины в североамериканский прокат спрос на ротвейлеров резко увеличился.
    Майку Ходжесу было предложено возглавить съемочный процесс, но режиссер был вынужден отклонить предложение. Впоследствии Майк был назначен режиссером сиквела, но спустя 20 дней после начала съемок Ходжес был отстранен от работы, не сойдясь во взглядах с продюсерами.
    Грегори Пек согласился на серьезное снижение стандартного гонорара, удовлетворившись суммой в 250 тысяч долларов. В качестве бонуса Грегори должен был получить 10% от сборов картины в прокате (60, 9 млн. долларов только в США). Таким образом, в карьере Грегори Омен стал самым высокооплачиваемым фильмом.
    Первые показы картины состоялись 6 июня 1976 года, знаменуя тем самым число Антихриста — 666.
    Исполнитель главной роли, Грегори Пек, опередил своих конкурентов в лице Чарлтона Хестона, Роя Шайдера и Уильяма Холдена, несмотря на то, что не снимался в серьезных картинах около пяти лет (с 1971 по 1975). Холдену же досталась главная роль в сиквеле Омена.
    Для того, чтобы заставить стаю бабуинов атаковать автомобиль, сотрудник Виндсорского зоопарка был помещен на заднее сидение машины вместе с вожаком стаи. Обезьяны натурально сходили с ума, вызвав неподдельные эмоции исполнительницы главной женской роли Ли Ремик.
    В сцене с опрокидыванием корзины с рыбой были задействованы уже мертвые сардины, покрашенные в оранжевый цвет. Режиссер Ричард Доннер по этическим соображениям отказался использовать для съемок живую рыбу.
    Для сцены с падением Ли Ремик была использована соответствующая вертикальная декорация, символизирующая пол. Таким образом, для съемок этой сцены не потребовалась помощь каскадеров.
    После того, как рабочее название фильма сменилось с Антихриста на Родимое пятно (The Birthmark), членов съемочной команды начали преследовать неприятности:
    *** Грегори Пек и сценарист Дэвид Зельцер летели в Великобританию на разных самолетах, и оба авиалайнера испытали на себе удар молнии;
    *** Продюсер картины Харви Бернхард, находясь в Риме, лишь чудом избежал удара молнии;
    *** Ротвейлеры, использованные в ходе съемок, пытались загрызть своих дрессировщиков;
    *** Грегори Пек должен был лететь в Израиль, однако по некоторым причинам был вынужден отменить поездку. Чуть позже поступило известие о крушении авиалайнера — в живых не осталось ни одного пассажира.
    По мнению Ричарда Доннера, немалая заслуга в успехе Омена принадлежит композитору Джерри Голдсмиту, создавшему один из самых тревожных саундтреков в истории кино. За работу над саундтреком к Омену Джерри удостоился премии Оскар и гонорара в 250 тысяч долларов. Впоследствии Джерри еще не раз был номинирован на Оскара, но получить вторую статуэтку так и не смог.
    Харви Стивенс, исполнивший роль Дэмиена, — натуральный блондин.
    Бюджет картины — 2, 8 млн. долларов, затраты на проведение рекламной кампании — около 6 млн. долларов.
    Харви Стивенс, исполняющий роль Дэмиэна, не знал, что он снимается в фильме ужасов.
    На премьере фильма у нескольких зрителей был инфаркт.
    Скриншоты



    Скриншоты для ознакомления




    Омен: Трилогия/The Omen: Trilogy (1976/1978/1981) BDRip [H.264] [MP4|960x408]
    загрузка...
    Рейтинг →
     (голосов: 1, оценка 3/5, голосовать можно 1 раз )

    Другие торренты по теме:

  • Омен / The Omen (1976 / 1978 / 1981) BDRip [720p] [Трилогия] скачать через торрент бесплатно
  • Омен / The Omen (1976 / 1978 / 1981) BDRip [720p] [Трилогия] скачать через торрент бесплатно
  • Омен / The Omen (1976 - 1981) BDRip [H.264 / 1080p] [Трилогия] скачать через торрент бесплатно


    • Комментарии (0):

      Информация

      Информация

        Посетители, находящиеся в группе Гости, не могут оставлять комментарии в данной новости.

        ↓ Меню




        ↓ Опрос

        Вы добавили сайт в закладки?
        Да
        Нет


        Top 10 за месяц (КПК и мобильные)