.
Авторизация | Регистрация
Хочешь лучшие торренты? Добавь свой email!
Добавить

Торрент скачать бесплатно

» » Агент Икс / Agent X (2015) WEB-DLRip [H.264] (сезон 1, серии 1-10 из 10) BaibaKo [MP4|720x400] скачать через торрент бесплатно




    Агент Икс / Agent X (2015) WEB-DLRip [H.264] (сезон 1, серии 1-10 из 10) BaibaKo [MP4|720x400] скачать через торрент бесплатно

    Опубликовал: Админ | Дата: 2-01-2016, 04:01 | Просмотров: 299

    Производство: США
    Жанр: боевик, драма
    Режиссер: Питер О’Фаллон, Ута Бризвитц, Феликс Энрикез Алькала
    Актеры: Шэрон Стоун, Джефф Хефнер, Джон Ши, Ольга Фонда, Роб Нортон, Кэролин Стотс, Тони Френч, Скотт Гочис, Талия Томс, Ник Бенсман и др.

    Описание

    После смерти сенатора США, его овдовевшая супруга решает заняться собственной политической карьерой. Благодаря своей решимости и невероятной воле, она достаточно быстро становится первой женщиной вице-президентом страны. И выясняет, что на службе у правительства США состоит тайный агент, который решает дела слишком щекотливые для ФБР и ЦРУ.

    Продолжительность: ~00: 43: 00 серия
    Качество видео: WEB-DLRip
    Перевод: Многоголосый закадровый, профессиональный -BaibaKo
    Автор перевода: Наталья Захарова и Никита Коваль
    Озвучка: Ольга Мотрич, Артемий Мирон, Руслан Иванов и Александр Фурман
    Видео: AVC/H.264 (Baseline@L3.0 ), 720x400 (16: 9), ~1536 Кбит/сек
    Аудио #1: AAC, 2 канала, 163 Кбит/сек - русский (многоголосый закадровый)
    Аудио #2: AAC, 2 канала, 163 Кбит/сек - английский (оригинальный)
    Код:

    Полное имя : F:AgentX_s1_WEB-DLRip_x264_BaibaKo_[NNM-CLUB]AgentX.s01e01.WEB-DLRip.x264.Rus.Eng.BaibaKo.tv.mp4
    Формат : MPEG-4
    Профиль формата : Base Media
    Идентификатор кодека : isom
    Размер файла : 577 Мбайт
    Продолжительность : 43 м.
    Режим общего битрейта : Переменный
    Общий поток : 1867 Кбит/сек
    Дата кодирования : UTC 2015-11-10 14:25:16
    Дата пометки : UTC 2015-11-10 14:25:16
    Видео
    Идентификатор : 1
    Формат : AVC
    Формат/Информация : Advanced Video Codec
    Профиль формата :Baseline@L3.0
    Параметр CABAC формата : Нет
    Параметр ReFrames формата : 1 кадр
    Идентификатор кодека : avc1
    Идентификатор кодека/Информация : Advanced Video Coding
    Продолжительность : 43 м.
    Битрейт : 1536 Кбит/сек
    Максимальный битрейт : 6427 Кбит/сек
    Ширина : 720 пикселей
    Высота : 400 пикселей
    Соотношение сторон : 16:9
    Режим частоты кадров : Переменный
    Частота кадров : 23, 976 кадра/сек
    Минимальная частота кадров : 23, 974 кадра/сек
    Максимальная частота кадров : 23, 981 кадра/сек
    Цветовое пространство : YUV
    Субдискретизация насыщенности : 4:2:0
    Битовая глубина : 8 бит
    Тип развёртки : Прогрессивная
    Бит/(Пиксели*Кадры) : 0.222
    Размер потока : 475 Мбайт (82%)
    Библиотека кодирования : x264 core 142 r2479 dd79a61
    Настройки программы : cabac=0/ref=1/deblock=1:0:0/analyse=0x1:0x111/me=hex/subme=2/psy=1/psy_rd=1.00:0.00/mixed_ref=0/me_range=16/chroma_me=1/trellis=0/8x8dct=0/cqm=0/deadzone=21, 11/fast_pskip=1/chroma_qp_offset=0/threads=12/lookahead_threads=3/sliced_threads=0/nr=0/decimate=1/interlaced=0/bluray_compat=0/constrained_intra=0/bframes=0/weightp=0/keyint=240/keyint_min=24/scenecut=40/intra_refresh=0/rc_lookahead=10/rc=2pass/mbtree=1/bitrate=1536/ratetol=1.0/qcomp=0.60/qpmin=0/qpmax=69/qpstep=4/cplxblur=20.0/qblur=0.5/vbv_maxrate=10000/vbv_bufsize=10000/nal_hrd=none/filler=0/ip_ratio=1.40/aq=1:1.00
    Дата кодирования : UTC 2036-02-06 06:28:16
    Дата пометки : UTC 2015-11-10 14:25:34
    Основные цвета : BT.709
    Характеристики трансфера : BT.709
    Коэффициенты матрицы : BT.709
    Аудио #1
    Идентификатор : 2
    Формат : AAC
    Формат/Информация : Advanced Audio Codec
    Профиль формата : LC
    Идентификатор кодека : 40
    Продолжительность : 43 м.
    Вид битрейта : Переменный
    Битрейт : 163 Кбит/сек
    Максимальный битрейт : 214 Кбит/сек
    Каналы : 2 канала
    Расположение каналов : Front: L R
    Частота : 48, 0 КГц
    Метод сжатия : С потерями
    Размер потока : 50, 3 Мбайт (9%)
    Язык : Russian
    Дата кодирования : UTC 2015-11-10 14:25:25
    Дата пометки : UTC 2015-11-10 14:25:34
    Аудио #2
    Идентификатор : 3
    Формат : AAC
    Формат/Информация : Advanced Audio Codec
    Профиль формата : LC
    Идентификатор кодека : 40
    Продолжительность : 43 м.
    Вид битрейта : Переменный
    Битрейт : 163 Кбит/сек
    Максимальный битрейт : 219 Кбит/сек
    Каналы : 2 канала
    Расположение каналов : Front: L R
    Частота : 48, 0 КГц
    Метод сжатия : С потерями
    Размер потока : 50, 3 Мбайт (9%)
    Язык : English
    Дата кодирования : UTC 2015-11-10 14:25:30
    Дата пометки : UTC 2015-11-10 14:25:34


    Скриншоты для ознакомления




    Агент Икс/Agent X (2015) WEB-DLRip [H.264] (сезон 1, серии 1-10 из 10) BaibaKo [MP4|720x400]
    загрузка...
    Рейтинг →
     (голосов: 1, оценка 5/5, голосовать можно 1 раз )

    Другие торренты по теме:

  • Агент / Agent (2017) WEBRip [AD]
  • Агент 47 / Hitman: Agent 47 (2015) WEBRip [1080p] [Трейлер] скачать через торрент бесплатно
  • Агент Картер / Agent Carter (2015) WEB-DL [H.264 / 720p-LQ] (Сезон 1, серии 1-8 из 8) (Невафильм) скачать через торрент бесплатно
  • Агент 47 / Hitman: Agent 47 (2015) WEBRip [H.264 / 1080p] [Трейлер#2] скачать через торрент бесплатно
  • Хитмэн: Агент 47 / Hitman: Agent 47 (2015) CamRip скачать через торрент бесплатно
  • Хитмэн: Агент 47 / Hitman: Agent 47 (2015) CamRip [Proper] скачать через торрент бесплатно
  • Агент Л.И.С.А. / Agent F.O.X. (2014) BDRip скачать через торрент бесплатно
  • F.J. DeSanto | Hitman: Agent 47: Official Movie Prelude / Хитмэн: Агент 47: Официальный приквел к фильму (2015) [JPG] скачать через торрент бесплатно


    • Комментарии (2):

      #1 Написал: Esenin (Посетители | 25/0) - 2 января 2016 20:13
        В целом неплохой сериал, странно, что я не видел его раньше. Каждая серия снята по-особенному, не просто для хронометража, а реально дополняет и расширяет общий сюжет, интересно.

        #2 Написал: kissfm11 (Посетители | 3/0) - 2 января 2016 20:32
          Отличный сериал! Весь сезон посмотрел на одном дыхании, так что жду продолжения. Озвучка от Байбако, как всегда на высоте. За несколько вечеров можно посмотреть, главное взять побольше попкорна.

          Информация

          Информация

            Посетители, находящиеся в группе Гости, не могут оставлять комментарии в данной новости.

            ↓ Меню




            ↓ Опрос

            Вы добавили сайт в закладки?
            Да
            Нет


            Top 10 за месяц (КПК и мобильные)