.
Авторизация | Регистрация
Хочешь лучшие торренты? Добавь свой email!
Добавить

Торрент скачать бесплатно

» » Беовульф / Beowulf: Return to the Shieldlands (2016) WEB-DLRip [H.264] (сезон 1, серии 1 из 13) BaibaKo [MP4|720x400] скачать через торрент бесплатно




    Беовульф / Beowulf: Return to the Shieldlands (2016) WEB-DLRip [H.264] (сезон 1, серии 1 из 13) BaibaKo [MP4|720x400] скачать через торрент бесплатно

    Опубликовал: Админ | Дата: 2-01-2016, 04:01 | Просмотров: 101

    Производство: США (ITV Studios, Independent Television (ITV))
    Жанр: фэнтези, боевик, драма, приключения
    Режиссер: Джон Ист, Джулиан Холмс, Марек Лоузи
    Актеры: Гисли Орн Гардарссон, Киран Бью, Лолита Чакрабарти, Кирсти Освальд, Эшли Томас, Пабло Вердехо, Дэвид Аджала, Джои Анса и др.

    Описание

    Местом действия фэнтези-драмы станут полные опасности бескрайние земли Шилдленда, населенного не только людьми, но и всевозможными фантастическими существами. В центре сюжета окажется скандинавский воин-наемник Беовульф. Спустя многие годы, проведенные в скитаниях и сражениях, Беовульф возвращается в Хеорот, засвидетельствовать свое почтение к недавно умершему правителю и давнему другу Хродгару. Но когда на Хеорот нападает ужасное чудовище Грендель, Беовульфу не остается ничего другого, кроме как сразиться с чудовищем, завоевав благосклонность новой правительницы Таны и всего народа.

    Продолжительность: ~00: 45: 00 серия
    Качество видео: WEB-DLRip
    Перевод: Многоголосый закадровый, профессиональный -BaibaKo
    Автор перевода: Ольга Пашкова
    Озвучка: Юля Малахова, Артемий Мирон, Валерий Смекалов и Дмитрий Глебов
    Видео: AVC/H.264 (Baseline@L3.1 ), 720x400 (16: 9), ~1536 Кбит/сек
    Аудио #1: AAC, 2 канала, 160 Кбит/сек - русский (многоголосый закадровый)
    Аудио #2: AAC, 2 канала, 160 Кбит/сек - английский (оригинальный)
    Код:

    Полное имя : F:Beowulf_s1_WEB-DLRip_x264_BaibaKo_[NNM-CLUB]Beowulf.Return.To.The.Shieldlands.s01e01.WEB-DLRip.x264.Rus.Eng.BaibaKo.tv.mp4
    Формат : MPEG-4
    Профиль формата : Base Media/Version 2
    Идентификатор кодека : mp42
    Размер файла : 605 Мбайт
    Продолжительность : 45 м.
    Режим общего битрейта : Переменный
    Общий поток : 1864 Кбит/сек
    Программа кодирования : HandBrake 0.10.0 2014112200
    Видео
    Идентификатор : 1
    Формат : AVC
    Формат/Информация : Advanced Video Codec
    Профиль формата :Baseline@L3.1
    Параметр CABAC формата : Нет
    Параметр ReFrames формата : 3 кадра
    Идентификатор кодека : avc1
    Идентификатор кодека/Информация : Advanced Video Coding
    Продолжительность : 45 м.
    Битрейт : 1536 Кбит/сек
    Ширина : 720 пикселей
    Высота : 400 пикселей
    Соотношение сторон : 16:9
    Режим частоты кадров : Постоянный
    Частота кадров : 25, 000 кадров/сек
    Цветовое пространство : YUV
    Субдискретизация насыщенности : 4:2:0
    Битовая глубина : 8 бит
    Тип развёртки : Прогрессивная
    Бит/(Пиксели*Кадры) : 0.213
    Размер потока : 499 Мбайт (82%)
    Библиотека кодирования : x264 core 142 r2479 dd79a61
    Настройки программы : cabac=0/ref=3/deblock=1:0:0/analyse=0x1:0x111/me=hex/subme=7/psy=1/psy_rd=1.00:0.00/mixed_ref=1/me_range=16/chroma_me=1/trellis=1/8x8dct=0/cqm=0/deadzone=21, 11/fast_pskip=1/chroma_qp_offset=-2/threads=6/lookahead_threads=1/sliced_threads=0/nr=0/decimate=1/interlaced=0/bluray_compat=0/constrained_intra=0/bframes=0/weightp=0/keyint=250/keyint_min=25/scenecut=40/intra_refresh=0/rc_lookahead=40/rc=2pass/mbtree=1/bitrate=1536/ratetol=1.0/qcomp=0.60/qpmin=0/qpmax=69/qpstep=4/cplxblur=20.0/qblur=0.5/vbv_maxrate=14000/vbv_bufsize=14000/nal_hrd=none/filler=0/ip_ratio=1.40/aq=1:1.00
    Основные цвета : BT.709
    Характеристики трансфера : BT.709
    Коэффициенты матрицы : BT.709
    Аудио #1
    Идентификатор : 2
    Формат : AAC
    Формат/Информация : Advanced Audio Codec
    Профиль формата : LC
    Идентификатор кодека : 40
    Продолжительность : 45 м.
    Вид битрейта : Переменный
    Битрейт : 160 Кбит/сек
    Каналы : 2 канала
    Расположение каналов : Front: L R
    Частота : 48, 0 КГц
    Метод сжатия : С потерями
    Размер потока : 52, 1 Мбайт (9%)
    Заголовок : Stereo
    Язык : Russian
    Аудио #2
    Идентификатор : 3
    Формат : AAC
    Формат/Информация : Advanced Audio Codec
    Профиль формата : LC
    Идентификатор кодека : 40
    Продолжительность : 45 м.
    Вид битрейта : Переменный
    Битрейт : 160 Кбит/сек
    Каналы : 2 канала
    Расположение каналов : Front: L R
    Частота : 48, 0 КГц
    Метод сжатия : С потерями
    Размер потока : 52, 0 Мбайт (9%)
    Заголовок : Stereo
    Язык : English


    Скриншоты для ознакомления




    Беовульф/Beowulf: Return to the Shieldlands (2016) WEB-DLRip [H.264] (сезон 1, серии 1 из 13) BaibaKo [MP4|720x400]
    загрузка...
    Рейтинг →
     (голосов: 1, оценка 4/5, голосовать можно 1 раз )

    Другие торренты по теме:

  • Беовульф / Beowulf (2007) BDRip [1080p] 3D [Вертикальная анаморфная стереопара]
  • Беовульф / Beowulf (2007) BDRemux(BDRip) 3D [1080p] [3D / 2D] [hand made 16:9]
  • Беовульф / Beowulf (1999) WEB-DLRip скачать через торрент бесплатно
  • Беовульф / Beowulf (1999) WEB-DLRip [H.264] скачать через торрент бесплатно
  • Беовульф / Beowulf (2007) Blu-ray [H.264 / 1080p] [Directors Cut] скачать через торрент бесплатно
  • Беовульф / Beowulf: Return to the Shieldlands (2016) WEB-DLRip (сезон 1, серии 1 из 13) BaibaKo (обновляемая) скачать через торрент бесплатно
  • Беовульф / Beowulf (2007) BDRip [H.264 / 720p]
  • Беовульф / Беовульф: Возвращение в Шилдлендс / Beowulf: Return to the Shieldlands (2016) WEB-DLRip (сезон 1, серии 1 из 13) NewStudio (обновляемая) скачать через торрент бесплатно


    • Комментарии (0):

      Информация

      Информация

        Посетители, находящиеся в группе Гости, не могут оставлять комментарии в данной новости.

        ↓ Меню




        ↓ Опрос

        Вы добавили сайт в закладки?
        Да
        Нет


        Top 10 за месяц (КПК и мобильные)