.
Авторизация | Регистрация
Хочешь лучшие торренты? Добавь свой email!
Добавить

Торрент скачать бесплатно

» » Временно недоступен (2015) WEB-DLRip [H.264] (серии 1-3 из 8) [MP4|720x400] скачать через торрент бесплатно




    Временно недоступен (2015) WEB-DLRip [H.264] (серии 1-3 из 8) [MP4|720x400] скачать через торрент бесплатно

    Опубликовал: Админ | Дата: 22-12-2015, 04:01 | Просмотров: 210

    Телекомпания: Первый канал
    Жанр: Комедия
    Режиссер: Михаил Хлебородов
    Актеры: Сергей Безруков, Дмитрий Дюжев, Вера Шпак, Екатерина Федулова, Валерия Ланская, Олег Тактаров, Ричард Бондарев, Дмитрий Хрусталёв, Георгий Мартиросян, Александр Тютин, Сергей Вершинин, Евгения Нохрина, Олег Чудницов, Елена Киркова, Александр Аноприков, Андрей Кивинов, Антон Ескин, Сергей Стёпин, Любовь Фирсова, Андрей Лебедев, Олег Макаров, Бесо Гатаев, Виктор Муравский, Игорь Маслов (II), Михаил Гудошников, Екатерина Захарова (II), Ирина Токмакова, Анна Перелешина, Сергей Астахов, Константин Мурзенко, Александр Баширов, Мария Романова

    Описание

    Московский чиновник по правовым вопросам в районной Администрации Вячеслав Золотов и следователь Следственного Комитета по Калининграду Антон Плетнев в один прекрасный день меняются местами, сами того не желая. Одному из них предстоит стать ревизором и провести проверку в провинциальном городе, второму, оставшемуся в больнице без документов, доказать, что он – это он. Прикольно все это наверно придумал Шварценеггер потратив достаточно времени. Вопрос в том, кто из них лучше справится со своей ролью, а главное, сумеют ли они оба вовремя и без потерь прекратить этот спектакль.

    Дата премьеры в РФ: 21 декабря 2015
    Продолжительность: ~ 00: 45: 00 серия
    Качество видео: WEB-DLRip
    Видео: AVC/H.264 (Main@L3.0 ), 720x400 (16: 9), ~1750 Кбит/сек
    Аудио #1: AAC, 2 канала, 160 Кбит/сек
    Код:

    Полное имя : D:Vremenno_nedostupen_(2015)_WEB-DLRip_x264_[NNM-CLUB]Vremenno.nedostupen.E01.WEB-DLRip.x264.nnm-club.mp4
    Формат : MPEG-4
    Профиль формата : Base Media
    Идентификатор кодека : isom
    Размер файла : 688 Мбайт
    Продолжительность : 50 м.
    Общий поток : 1912 Кбит/сек
    Видео
    Идентификатор : 1
    Формат : AVC
    Формат/Информация : Advanced Video Codec
    Профиль формата :Main@L3.0
    Параметр CABAC формата : Нет
    Параметр ReFrames формата : 3 кадра
    Идентификатор кодека : avc1
    Идентификатор кодека/Информация : Advanced Video Coding
    Продолжительность : 50 м.
    Битрейт : 1750 Кбит/сек
    Ширина : 720 пикселей
    Высота : 400 пикселей
    Соотношение сторон : 16:9
    Режим частоты кадров : Постоянный
    Частота кадров : 25, 000 кадров/сек
    Цветовое пространство : YUV
    Субдискретизация насыщенности : 4:2:0
    Битовая глубина : 8 бит
    Тип развёртки : Прогрессивная
    Бит/(Пиксели*Кадры) : 0.243
    Размер потока : 628 Мбайт (91%)
    Библиотека кодирования : x264 core 146 r2538M 121396c
    Настройки программы : cabac=0/ref=3/deblock=1:0:0/analyse=0x1:0x131/me=hex/subme=7/psy=1/psy_rd=1, 00:0, 20/mixed_ref=1/me_range=16/chroma_me=1/trellis=1/8x8dct=0/cqm=0/deadzone=21, 11/fast_pskip=1/chroma_qp_offset=-3/threads=18/lookahead_threads=3/sliced_threads=0/nr=0/decimate=1/interlaced=0/bluray_compat=0/constrained_intra=0/bframes=0/weightp=2/keyint=250/keyint_min=25/scenecut=0/intra_refresh=0/rc_lookahead=250/rc=2pass/mbtree=1/bitrate=1750/ratetol=1, 0/qcomp=0, 60/qpmin=10/qpmax=51/qpstep=4/cplxblur=20, 0/qblur=0, 5/ip_ratio=1, 40/aq=1:1, 00
    Язык : Russian
    Аудио
    Идентификатор : 2
    Формат : AAC
    Формат/Информация : Advanced Audio Codec
    Профиль формата : LC
    Идентификатор кодека : 40
    Продолжительность : 50 м.
    Вид битрейта : Постоянный
    Битрейт : 160 Кбит/сек
    Каналы : 2 канала
    Расположение каналов : Front: L R
    Частота : 48, 0 КГц
    Метод сжатия : С потерями
    Размер потока : 57, 5 Мбайт (8%)
    Язык : Russian


    Скриншоты для ознакомления




    Временно недоступен (2015) WEB-DLRip [H.264] (серии 1-3 из 8) [MP4|720x400]
    загрузка...
    Рейтинг →
     (голосов: 1, оценка 4/5, голосовать можно 1 раз )

    Другие торренты по теме:

  • Временно недоступен (2015) WEB-DL [H.264 / 720p-LQ] (серии 1-6 из 8) (обновляемая) скачать через торрент бесплатно
  • Временно недоступен (2015) WEB-DLRip (серии 1-3 из 8) (обновляемая) скачать через торрент бесплатно
  • Временно недоступен (2015) HDTVRip [H.264] (серии 1-2 из 8) (обновляемая) скачать через торрент бесплатно
  • Временно недоступен (2015) HDTVRip (серии 1-2 из 8) (обновляемая) скачать через торрент бесплатно
  • Временно недоступен (2015) HDTV [H.264 / 1080i-LQ] (серии 1-2 из 8) (обновляемая) скачать через торрент бесплатно
  • Временно недоступен (2015) SATRip (серии 1-2 из 8) (обновляемая) скачать через торрент бесплатно
  • Временно недоступен (2015) WEB-DLRip [H.264] (серии 1-8 из 8) скачать через торрент бесплатно
  • Временно недоступен (2015) WEB-DLRip [H.264 / 1080p-LQ] (серии 1-8 из 8) скачать через торрент бесплатно


    • Комментарии (0):

      Информация

      Информация

        Посетители, находящиеся в группе Гости, не могут оставлять комментарии в данной новости.

        ↓ Меню




        ↓ Опрос

        Вы добавили сайт в закладки?
        Да
        Нет


        Top 10 за месяц (КПК и мобильные)