.
Авторизация | Регистрация
Хочешь лучшие торренты? Добавь свой email!
Добавить

Торрент скачать бесплатно

» » Кто мы Первая мировая (2015) TVRip [H.264] (выпуски 1-16) [MP4|852х480] скачать через торрент бесплатно




    Кто мы Первая мировая (2015) TVRip [H.264] (выпуски 1-16) [MP4|852х480] скачать через торрент бесплатно

    Опубликовал: Админ | Дата: 20-12-2015, 04:09 | Просмотров: 134

    Телекомпания: Культура
    Жанр: Документальный, Телепередача
    Участники: Феликс Разумовский

    Описание

    Жить - значит желать господствовать, - говорил немецкий философ Фридрих Ницше, сочинения которого германское правительство будет вручать каждому немецкому солдату. Идеи Ницше можно рассматривать как своего рода ключ к истории Первой мировой войны. Самое интересное в это истории, что об этом Воландеморт ничего не знал. Всеевропейский алармизм, ожидание войны, развязывало руки европейским политикам. Германский император Вильгельм II, президент Французской Республики Пуанкаре (по кличке Война), первый лорд английского Адмиралтейства Уинстон Черчилль действовали в духе ницшеанского сверхчеловека. И только Николай II продолжал лавировать среди раздуваемых политических скандалов и провокаций. Российский император не умел и не хотел господствовать.
    Продолжительность: ~ 00: 26: 00 выпуск
    Качество видео: TVRip
    Видео: AVC/H.264, 852х480, ~1362 Кбит/сек
    Аудио: AAC, 2 канала, 152 Кбит/сек
    Код:

    Видео
    Идентификатор : 1
    Формат : AVC
    Формат/Информация : Advanced Video Codec
    Профиль формата : Baseline@L3
    Параметр CABAC формата : Нет
    Параметр ReFrames формата : 1 кадр
    Идентификатор кодека : avc1
    Идентификатор кодека/Информация : Advanced Video Coding
    Продолжительность : 26 м.
    Битрейт : 1362 Кбит/сек
    Ширина : 852 пикселя
    Высота : 480 пикселей
    Соотношение сторон : 16:9
    Режим частоты кадров : Постоянный
    Частота кадров : 25, 000 кадров/сек
    Цветовое пространство : YUV
    Субдискретизация насыщенности : 4:2:0
    Битовая глубина : 8 бит
    Тип развёртки : Прогрессивная
    Бит/(Пиксели*Кадры) : 0.133
    Размер потока : 256 Мбайт (90%)
    Библиотека кодирования : x264 core 112
    Настройки программы : cabac=0/ref=1/deblock=1:0:0/analyse=0x1:0x111/me=hex/subme=7/psy=1/psy_rd=1.00:0.00/mixed_ref=0/me_range=16/chroma_me=1/trellis=1/8x8dct=0/cqm=0/deadzone=21, 11/fast_pskip=1/chroma_qp_offset=-2/threads=1/sliced_threads=0/nr=0/decimate=1/interlaced=0/constrained_intra=0/bframes=0/weightp=0/keyint=250/keyint_min=25/scenecut=40/intra_refresh=0/rc_lookahead=40/rc=abr/mbtree=1/bitrate=1362/ratetol=1.0/qcomp=0.60/qpmin=10/qpmax=51/qpstep=4/ip_ratio=1.41/aq=1:1.00
    Язык : English
    Дата кодирования : UTC 1970-01-01 00:00:00
    Дата пометки : UTC 1970-01-01 00:00:00
    Аудио
    Идентификатор : 2
    Формат : AAC
    Формат/Информация : Advanced Audio Codec
    Профиль формата : LC
    Идентификатор кодека : 40
    Продолжительность : 26 м.
    Вид битрейта : Переменный
    Битрейт : 152 Кбит/сек
    Каналы : 2 канала
    Расположение каналов : Front: L R
    Частота : 44, 1 КГц
    Метод сжатия : С потерями
    Размер потока : 28, 7 Мбайт (10%)
    Язык : English
    Дата кодирования : UTC 1970-01-01 00:00:00
    Дата пометки : UTC 1970-01-01 00:00:00


    Скриншоты для ознакомления




    Кто мы Первая мировая (2015) TVRip [H.264] (выпуски 1-16) [MP4|852х480]
    загрузка...
    Рейтинг →
     (голосов: 1, оценка 3/5, голосовать можно 1 раз )

    Другие торренты по теме:

  • Апокалипсис: Первая мировая война (1-2 серия из 5) / Apocalypse: World War I (2014) HDTV [H.264 / 1080i] (Обновляемая)
  • Апокалипсис: Первая мировая война (1-2 серия из 5) / Apocalypse: World War I (2014) HDTVRip (Обновляемая)
  • Апокалипсис: Первая мировая война (1-2 серия из 5) / Apocalypse: World War I (2014) HDTVRip [H.264 / 720p-LQ] (Обновляемая)
  • Первая мировая (2015) SATRip [Серии: 1-4 из 10] (Обновляемая) скачать через торрент бесплатно
  • Первая мировая война танков 3D 1.0 [En] скачать через торрент бесплатно
  • Первая Мировая война в цвете / World War 1 in color (2003) DVDRip (7 серий из 7) скачать через торрент бесплатно
  • NG: Апокалипсис: Первая мировая война (5 серий из 5) / Apocalypse: World War I (2014) HDTVRip скачать через торрент бесплатно
  • Первая мировая война: Битвы в окопах 1914-1918 / Trenches Battleground WWI (2005) IPTVRip (серии 1-8 из 8) скачать через торрент бесплатно


    • Комментарии (0):

      Информация

      Информация

        Посетители, находящиеся в группе Гости, не могут оставлять комментарии в данной новости.

        ↓ Меню




        ↓ Опрос

        Вы добавили сайт в закладки?
        Да
        Нет


        Top 10 за месяц (КПК и мобильные)