.
Авторизация | Регистрация
Хочешь лучшие торренты? Добавь свой email!
Добавить

Торрент скачать бесплатно

» » Колобанга (2015) HDRip [H.264] (Сезон 1, серии 1-10 из 10) [MP4|1280x720] скачать через торрент бесплатно




    Колобанга (2015) HDRip [H.264] (Сезон 1, серии 1-10 из 10) [MP4|1280x720] скачать через торрент бесплатно

    Опубликовал: Админ | Дата: 27-11-2015, 04:02 | Просмотров: 314

    Производство: Россия, Колобанга
    Жанр: Компьютерная анимация, Обучающий, Развивающий, Приключения
    Режиссер: Александр Романец
    Персонажи: Колобок, Умник, Челка, Глюк

    Описание

    Колобанга – детективный мультик про колобков, способный перевернуть ваш взгляд на Интернет. Отправляя смайлы в Сети, вы вряд ли осознаете, что где-то на просторах Интернета в это время над вашими эмоциями трудятся десятки колобков: посылают воздушные поцелуи, грустят и даже порой краснеют за вас. Вряд ли вы задумывались и над внешним видом вирусов или, к примеру, глюка… А ведь каждый из них имеет свой характер. Мультсериал Колобанга. Только для пользователей Интернета раскроет всю правду о том, что до настоящего момента казалось нереальным. Расскажет то, о чем молчали другие мультфильмы для детей.
    Все серии мультфильма связны одной историей: в городке под названием Колобанга смайлы-колобки жили весело и беззаботно, помогая пользователю Антону передавать эмоции в сообщениях. Но однажды размеренность их жизни была нарушена странным происшествием: кто-то похитил почтовую собачку. Медлить с поисками нельзя, ведь Антон решил переустановить систему компьютера, что приведет к исчезновению Колобанги.

    Дата премьеры в России: 19 октября 2015
    Официальный сайт
    Продолжительность: ~ 00: 14: 00 серия
    Качество видео: HDRip 720p
    Видео: AVC/H.264, 1280x720, ~4982 Kbps
    Аудио: AAC, 2 ch, 320 Kbps, VBR
    Код:

    General
    Complete name : Z:TorrentaEP_02_new_sound_1.mp4
    Format : MPEG-4
    Format profile : Base Media/Version 2
    Codec ID : mp42
    File size : 512 MiB
    Duration : 13mn 30s
    Overall bit rate mode : Variable
    Overall bit rate : 5 307 Kbps
    Encoded date : UTC 2015-11-24 08:13:58
    Tagged date : UTC 2015-11-24 08:14:01
    ©TIM : 00:00:00:00
    ©TSC : 25
    ©TSZ : 1
    Video
    ID : 1
    Format : AVC
    Format/Info : Advanced Video Codec
    Format profile :Main@L4.1
    Format settings, CABAC : Yes
    Format settings, ReFrames : 3 frames
    Codec ID : avc1
    Codec ID/Info : Advanced Video Coding
    Duration : 13mn 30s
    Bit rate : 4 982 Kbps
    Width : 1 280 pixels
    Height : 720 pixels
    Display aspect ratio : 16:9
    Frame rate mode : Constant
    Frame rate : 25.000 fps
    Standard : PAL
    Color space : YUV
    Chroma subsampling : 4:2:0
    Bit depth : 8 bits
    Scan type : Progressive
    Bits/(Pixel*Frame) : 0.216
    Stream size : 481 MiB (94%)
    Language : English
    Encoded date : UTC 2015-11-24 08:13:58
    Tagged date : UTC 2015-11-24 08:13:58
    Color primaries : BT.709
    Transfer characteristics : BT.709
    Matrix coefficients : BT.709
    Audio
    ID : 2
    Format : AAC
    Format/Info : Advanced Audio Codec
    Format profile : LC
    Codec ID : 40
    Duration : 13mn 30s
    Source duration : 13mn 30s
    Bit rate mode : Variable
    Bit rate : 317 Kbps
    Maximum bit rate : 425 Kbps
    Channel(s) : 2 channels
    Channel positions : Front: L R
    Sampling rate : 48.0 KHz
    Compression mode : Lossy
    Stream size : 30.6 MiB (6%)
    Source stream size : 30.6 MiB (6%)
    Language : English
    Encoded date : UTC 2015-11-24 08:13:58
    Tagged date : UTC 2015-11-24 08:13:58


    Скриншоты для ознакомления




    Колобанга (2015) HDRip [H.264] (Сезон 1, серии 1-10 из 10) [MP4|1280x720]
    загрузка...
    Рейтинг →
     (голосов: 1, оценка 4/5, голосовать можно 1 раз )

    Другие торренты по теме:

  • Колобанга (2015) WEBRip [H.264 / 720-LQ] (Сезон 1, серий 10 из 10) скачать через торрент бесплатно
  • Колобанга (2015-2016) WEB-DLRip (сезон 1 - 2, серии 1-26 из 26)
  • Колобанга (2015-2016) WEB-DL [H.264 / 1080p-LQ] (сезон 1 - 2, серии 1-26 из 26)
  • Колобанга (2015-2016) WEB-DL [H.264 / 720p-LQ] (сезон 1 - 2, серии 1-26 из 26)


    • Комментарии (0):

      Информация

      Информация

        Посетители, находящиеся в группе Гости, не могут оставлять комментарии в данной новости.

        ↓ Меню




        ↓ Опрос

        Вы добавили сайт в закладки?
        Да
        Нет


        Top 10 за месяц (КПК и мобильные)