.
Авторизация | Регистрация
Хочешь лучшие торренты? Добавь свой email!
Добавить

Торрент скачать бесплатно

» » Родина / Чужой среди своих / Homeland (2015) WEB-DL [H.264] (сезон 5, серии 1-8 из 12) LostFilm [MP4|1280x720] скачать через торрент бесплатно




    Родина / Чужой среди своих / Homeland (2015) WEB-DL [H.264] (сезон 5, серии 1-8 из 12) LostFilm [MP4|1280x720] скачать через торрент бесплатно

    Опубликовал: Админ | Дата: 26-11-2015, 10:24 | Просмотров: 1110

    Производство: США/Teakwood Lane Productions, Cherry Pie Productions, Keshet Broadcasting
    Жанр: Триллер, Драма, Детектив
    Режиссер: Лесли Линка Глаттер, Майкл Куэста, Дэниэл Эттиэс
    Продюсер: Алекс Ганса, Ховард Гордон, Майкл Клик
    Актеры: Клэр Дэйнс, Дэмиэн Льюис, Мэнди Пэтинкин, Морена Баккарин, Дэвид Хэрвуд, Руперт Френд, Джексон Пэйс, Морган Сэйлор, Ф. Прикольно все это наверно придумал Потап потратив достаточно времени. Мюррэй Абрахам, Диего Клаттенхофф и др.

    Описание

    5-ый сезон сериала Родина - это новый виток взаимоотношений офицера Мэтисон с террористами и другими преступниками. Редко в многосерийных фильмах случаются настолько резкие повороты, которые вычеркивают главного героя из дальнейших серий. В данном случае произошел именно такой поворот. Николас Броуди, с которого начались все события, погиб в прошлом сезоне. Закончились вопросы о том, что он планирует и как дальше собирается действовать, но жизнь страны и работа ЦРУ на этом не закончилась. Из основных персонажей двое по-прежнему остались у руля - Кэрри Мэтисон и Саул Беренсон.
    Новый сезон начинается с того, что Кэрри пытается начать новую жизнь в Берлине, через два года после нападения на посольство в Исламабаде. Но ее мир снова оказывается под угрозой, после просьбы шефа, которая заставляет ее вернутся в мир опасности, который она оставила позади.

    Продолжительность: ~00: 50: 00 серия
    Качество видео: WEB-DL 720p
    Перевод: Многоголосый закадровый, профессиональный -LostFilm
    Видео: AVC/H.264 (High@L3.1), 1280x720 (16: 9), ~4000 Кбит/сек
    Аудио: AAC, 2 канала, 256 Кбит/сек - русский (многоголосый закадровый)
    Код:
    General
    Complete name : D:СериалыРодина (сезон 5) Homeland (2015).WEB-DL.720p.NNM-ClubHomeland.S05E07.720p.WEB.rus.LostFilm.TV.mp4
    Format : MPEG-4
    Format profile : Base Media
    Codec ID : isom
    File size : 1.49 GiB
    Duration : 50mn 4s
    Overall bit rate mode : Variable
    Overall bit rate : 4 247 Kbps
    Collection : Родина
    Season : 5
    Album : Родина, Сезон 5
    Album/Performer : Родина
    Part : 7
    Part/Position : 5
    Track name : Иволга
    Track name/Position : 7
    Performer : Родина
    Genre : Drama
    ContentType : TV Show
    Recorded date : 2015
    Encoded date : UTC 2015-11-16 19:21:24
    Tagged date : UTC 2015-11-16 19:21:24
    Writing application : Yamb 2.1.0.0 [http://yamb.unite-video.com]/LostCoder
    Copyright : LostFilm.TV (c)
    Cover : Yes
    Comment : Кэрри получает информацию о местонахождении известного террориста и, не имея возможности ее проверить, решает одобрить операцию на свой страх и риск.
    Part_ID : 507
    Video
    ID : 1
    Format : AVC
    Format/Info : Advanced Video Codec
    Format profile :High@L3.1
    Format settings, CABAC : No
    Format settings, ReFrames : 2 frames
    Codec ID : avc1
    Codec ID/Info : Advanced Video Coding
    Duration : 50mn 4s
    Bit rate : 4 000 Kbps
    Maximum bit rate : 13.3 Mbps
    Width : 1 280 pixels
    Height : 720 pixels
    Display aspect ratio : 16:9
    Frame rate mode : Variable
    Frame rate : 23.976 fps
    Minimum frame rate : 23.974 fps
    Maximum frame rate : 23.981 fps
    Color space : YUV
    Chroma subsampling : 4:2:0
    Bit depth : 8 bits
    Scan type : Progressive
    Bits/(Pixel*Frame) : 0.181
    Stream size : 1.40 GiB (94%)
    Writing library : x264 core 112 r1834 a51816a
    Encoding settings : cabac=0/ref=3/deblock=1:0:0/analyse=0x1:0x111/me=hex/subme=7/psy=1/psy_rd=1.00:0.00/mixed_ref=1/me_range=16/chroma_me=1/trellis=1/8x8dct=0/cqm=0/deadzone=21, 11/fast_pskip=1/chroma_qp_offset=-2/threads=12/sliced_threads=0/nr=0/decimate=1/interlaced=0/constrained_intra=0/bframes=3/b_pyramid=2/b_adapt=1/b_bias=0/direct=1/weightb=1/open_gop=0/weightp=2/keyint=250/keyint_min=25/scenecut=40/intra_refresh=0/rc_lookahead=40/rc=abr/mbtree=1/bitrate=4000/ratetol=1.0/qcomp=0.60/qpmin=0/qpmax=51/qpstep=4/vbv_maxrate=5000/vbv_bufsize=2000/ip_ratio=1.40/aq=1:1.00/nal_hrd=none
    Language : English
    Tagged date : UTC 2015-11-16 19:22:49
    Color range : Limited
    Color primaries : BT.709
    Transfer characteristics : BT.709
    Matrix coefficients : BT.709
    Audio
    ID : 2
    Format : AAC
    Format/Info : Advanced Audio Codec
    Format profile : LC
    Codec ID : 40
    Duration : 50mn 4s
    Bit rate mode : Variable
    Bit rate : 245 Kbps
    Maximum bit rate : 318 Kbps
    Channel(s) : 2 channels
    Channel positions : Front: L R
    Sampling rate : 48.0 KHz
    Compression mode : Lossy
    Stream size : 87.7 MiB (6%)
    Encoded date : UTC 2015-11-16 19:22:27
    Tagged date : UTC 2015-11-16 19:22:49


    Скриншоты для ознакомления




    Родина/Чужой среди своих/Homeland (2015) WEB-DL [H.264] (сезон 5, серии 1-8 из 12) LostFilm [MP4|1280x720]
    загрузка...
    Рейтинг →
     (голосов: 1, оценка 3/5, голосовать можно 1 раз )

    Другие торренты по теме:

  • Родина / Чужой среди своих / Homeland (2014) WEB-DL [H.264 / 720p-LQ] (сезон 4, серии 01-02 из 12) (Пифагор) (обновляемая)
  • Родина / Чужой среди своих / Homeland (2014) WEB-DLRip (сезон 4, серии 1 из 12) LostFilm (Обновляемая)
  • Родина / Чужой среди своих / Homeland (2014) WEB-DL [H.264 / 720p-LQ] (сезон 4, серии 1 из 12) LostFilm (Обновляемая)
  • Родина / Чужой среди своих / Homeland (2015) WEB-DL [H.264 / 720p-LQ] (сезон 5, серии 1 из 12) Пифагор (обновляемая) скачать через торрент бесплатно
  • Родина / Чужой среди своих / Homeland (2015) WEB-DLRip (сезон 5, серии 1 из 12) Пифагор (обновляемая) скачать через торрент бесплатно
  • Родина / Чужой среди своих / Homeland (2015) WEB-DLRip (сезон 5, серии 1 из 12) LostFilm (обновляемая) скачать через торрент бесплатно
  • Родина / Чужой среди своих / Homeland (2017) WEB-DLRip (сезон 6, серия 1 из 12) Пифагор (обновляемая)
  • Родина / Чужой среди своих / Homeland (2017) WEBRip [H.264 / 720p] (сезон 6, серии 1 из 12) LostFilm (обновляемая)


    • Комментарии (0):

      Информация

      Информация

        Посетители, находящиеся в группе Гости, не могут оставлять комментарии в данной новости.

        ↓ Меню




        ↓ Опрос

        Вы добавили сайт в закладки?
        Да
        Нет


        Top 10 за месяц (КПК и мобильные)