.
Авторизация | Регистрация
Хочешь лучшие торренты? Добавь свой email!
Добавить

Торрент скачать бесплатно

» » Робоцып / Robot Chicken (2015) WEB-DLRip [H.264] (сезон 8, серии 1-4 из ) RedRussian [MP4|1280x720] (обновляемая) скачать через торрент бесплатно




    Робоцып / Robot Chicken (2015) WEB-DLRip [H.264] (сезон 8, серии 1-4 из ) RedRussian [MP4|1280x720] (обновляемая) скачать через торрент бесплатно

    Опубликовал: Админ | Дата: 18-11-2015, 04:03 | Просмотров: 205

    Производство: США
    Жанр: Фантастика, пародия, мультфильм
    Режиссер: Крис МакКэйк, Мэттью Сенрейч

    Описание

    Робоцып — калейдоскоп коротких скетчей, полных чёрного юмора и сатиры . Практически каждая сценка пародирует кино, теле-шоу, компьютерные игры, героев мультфильмов и комиксов, актёров, политиков, певцов и других знаменитостей, а также продукты питания, рекламные ролики или прочие проявления массовой культуры.

    Продолжительность: ~ 00: 11: 00 серия
    Качество видео: WEB-DLRip
    Перевод: Многоголосый закадровый, профессиональный - RedRussian
    Язык субтитров: Русские
    Вид субтитров: Вшитые, форсированные
    Видео: AVC/H.264, 1280x720, ~1980 Кбит/сек
    Аудио: AAC, 2 канала, 152 Кбит/сек
    Код:

    Полное имя : D:ТоррентыSRobot Chicken 8 seasonRobot Chicken Робоцып - 8 сезон 1 серия RUS RedRussian1337.mp4
    Формат : MPEG-4
    Профиль формата : Base Media
    Идентификатор кодека : isom
    Размер файла : 169 Мбайт
    Продолжительность : 11 м.
    Режим общего битрейта : Переменный
    Общий поток : 2139 Кбит/сек
    Программа кодирования : Lavf56.25.101
    Видео
    Идентификатор : 1
    Формат : AVC
    Формат/Информация : Advanced Video Codec
    Профиль формата :High@L3.1
    Параметр CABAC формата : Да
    Параметр ReFrames формата : 4 кадра
    Идентификатор кодека : avc1
    Идентификатор кодека/Информация : Advanced Video Coding
    Продолжительность : 11 м.
    Битрейт : 1980 Кбит/сек
    Ширина : 1280 пикселей
    Высота : 720 пикселей
    Соотношение сторон : 16:9
    Режим частоты кадров : Постоянный
    Частота кадров : 23, 976 кадра/сек
    Цветовое пространство : YUV
    Субдискретизация насыщенности : 4:2:0
    Битовая глубина : 8 бит
    Тип развёртки : Прогрессивная
    Бит/(Пиксели*Кадры) : 0.090
    Размер потока : 157 Мбайт (93%)
    Библиотека кодирования : x264 core 142
    Настройки программы : cabac=1/ref=3/deblock=1:0:0/analyse=0x3:0x113/me=hex/subme=7/psy=1/psy_rd=1.00:0.00/mixed_ref=1/me_range=16/chroma_me=1/trellis=1/8x8dct=1/cqm=0/deadzone=21, 11/fast_pskip=1/chroma_qp_offset=-2/threads=4/lookahead_threads=1/sliced_threads=0/nr=0/decimate=1/interlaced=0/bluray_compat=0/constrained_intra=0/bframes=3/b_pyramid=2/b_adapt=1/b_bias=0/direct=1/weightb=1/open_gop=0/weightp=2/keyint=24/keyint_min=2/scenecut=40/intra_refresh=0/rc_lookahead=24/rc=2pass/mbtree=1/bitrate=1980/ratetol=1.0/qcomp=0.60/qpmin=0/qpmax=69/qpstep=4/cplxblur=20.0/qblur=0.5/ip_ratio=1.40/aq=1:1.00
    Аудио
    Идентификатор : 2
    Формат : AAC
    Формат/Информация : Advanced Audio Codec
    Профиль формата : LC
    Идентификатор кодека : 40
    Продолжительность : 11 м.
    Duration_LastFrame : -11 мс.
    Вид битрейта : Переменный
    Битрейт : 152 Кбит/сек
    Максимальный битрейт : 192 Кбит/сек
    Каналы : 2 канала
    Расположение каналов : Front: L R
    Частота : 44, 1 КГц
    Метод сжатия : С потерями
    Размер потока : 12, 0 Мбайт (7%)


    Скриншоты для ознакомления




    Робоцып/Robot Chicken (2015) WEB-DLRip [H.264] (сезон 8, серии 1-4 из ) RedRussian [MP4|1280x720] (обновляемая)
    загрузка...
    Рейтинг →
     (голосов: 1, оценка 3/5, голосовать можно 1 раз )

    Другие торренты по теме:

  • Робоцып / Robot Chicken (2012-2013) / WEB-DL [H.264 / 1080p-LQ] (6 сезон, 20 серий из 20) [КетчупТВ] скачать через торрент бесплатно
  • Робоцып / Robot Chicken (2011) / WEB-DL (5 сезон, 20 серий из 20) [КетчупТВ] скачать через торрент бесплатно
  • Робоцып / Robot Chicken (2014) WEB-DL [H.264 / 720p-LQ] (7 сезон, 18 серий из 18) скачать через торрент бесплатно


    • Комментарии (0):

      Информация

      Информация

        Посетители, находящиеся в группе Гости, не могут оставлять комментарии в данной новости.

        ↓ Меню




        ↓ Опрос

        Вы добавили сайт в закладки?
        Да
        Нет


        Top 10 за месяц (КПК и мобильные)