.
Авторизация | Регистрация
Хочешь лучшие торренты? Добавь свой email!
Добавить

Торрент скачать бесплатно

» » Супергёрл / Супердевушка / Supergirl (2015) WEB-DLRip [H.264] (Сезон 1, серии 1-2 из 13) LostFilm [MP4|1280x720] скачать через торрент бесплатно




    Супергёрл / Супердевушка / Supergirl (2015) WEB-DLRip [H.264] (Сезон 1, серии 1-2 из 13) LostFilm [MP4|1280x720] скачать через торрент бесплатно

    Опубликовал: Админ | Дата: 6-11-2015, 04:00 | Просмотров: 236

    Производство: США
    Жанр: фантастика, боевик, приключения
    Режиссер: Глен Винтер
    Актеры: Мелисса Бенойст, Дерек Мио, Бен Бегли, Лаура Бенанти, Мехкад Брукс, Дин Кэйн, Калиста Флокхарт, Тони Френч, Роберт Гант, Дэвид Хэрвуд и др.

    Описание

    Супергёрл — фантастический боевик от авторов таких популярных сериалов, как Стрела и Флэш. В основу новинки положены графические романы издательства DC Comics. Сериал отличается впечатляющей хореографией боев, головокружительными трюками, потрясающей компьютерной графикой и спецэффектами, на создание которых канал CBS не пожалел средств. Визитной карточкой телешоу является отважная и жизнерадостная двоюродная сестра Супермена Кара, чьи большие голубые глаза и очаровательная улыбка способны покорить даже самые черствые сердца. Супергёрл существует в одной вселенной с Барри Алленом и Оливером Куином, что дает возможность этим героям вместе бороться со злом и несправедливостью.
    Когда Криптон, родная планета 12-летней Кары Зор-Эл (Малина Вайсман), была близка к разрушению, родители отправили свою дочь вслед за ее двоюродным братом Кал-Элом на Землю, чтобы она могла выжить и заодно защитить его от опасностей. Однако из-за взрывной волны корабль Кары попал в фантомную зону и прибыл на место назначения, когда Кал уже вырос, превратился в Супермена и перестал нуждаться в ее опеке...

    Продолжительность: ~00: 45: 00 серия
    Качество видео: WEB-DLRip 720p
    Перевод: Многоголосый закадровый, профессиональный -LostFilm
    Видео: AVC/H.264 (High@L4.1 ), 1280x720 (16: 9), ~4000 Кбит/сек
    Аудио: AAC, 2 канала, 248 Кбит/сек - русский (многоголосый закадровый)
    Код:

    Полное имя : E:Supergirl_s1_WEB-DL720p_x264_LostFilm_[NNM-CLUB]Supergirl.S01E01.720p.WEB.rus.LostFilm.TV.mp4
    Формат : MPEG-4
    Профиль формата : Base Media
    Идентификатор кодека : isom
    Размер файла : 1, 37 Гбайт
    Продолжительность : 46 м.
    Режим общего битрейта : Переменный
    Общий поток : 4217 Кбит/сек
    Коллекция : Супергёрл
    Сезон : 1
    Альбом : Супергёрл, Сезон 1
    Альбом/Исполнитель : Супергёрл
    Часть : 1
    Часть/Положение : 1
    Трек : Пилот
    Трек/Положение : 1
    Исполнитель : Супергёрл
    Жанр : Drama
    Тип содержимого : TV Show
    Дата записи : 2015
    Дата кодирования : UTC 2015-05-29 18:51:13
    Дата пометки : UTC 2015-05-29 18:51:13
    Программа кодирования : Yamb 2.1.0.0/LostCoder
    Правообладатель : LostFilm.TV (c)
    Обложка : Yes
    Примечание : Когда Криптон, родная планета 12-летней Кары Зор-Эл, была близка к разрушению, родители отправили свою дочь вслед за ее двоюродным братом Кал-Элом на Землю, чтобы она могла выжить и заодно защитить его от опасностей.
    Part_ID : 101
    Видео
    Идентификатор : 1
    Формат : AVC
    Формат/Информация : Advanced Video Codec
    Профиль формата :High@L4.1
    Параметр CABAC формата : Нет
    Параметр ReFrames формата : 4 кадра
    Идентификатор кодека : avc1
    Идентификатор кодека/Информация : Advanced Video Coding
    Продолжительность : 46 м.
    Битрейт : 4000 Кбит/сек
    Максимальный битрейт : 6322 Кбит/сек
    Ширина : 1280 пикселей
    Высота : 720 пикселей
    Соотношение сторон : 16:9
    Режим частоты кадров : Постоянный
    Частота кадров : 23, 976 кадра/сек
    Цветовое пространство : YUV
    Субдискретизация насыщенности : 4:2:0
    Битовая глубина : 8 бит
    Тип развёртки : Прогрессивная
    Бит/(Пиксели*Кадры) : 0.181
    Размер потока : 1, 28 Гбайт (94%)
    Заголовок : Imported with GPAC 0.4.6-DEV (internal rev. 5)
    Библиотека кодирования : x264 core 112 r1834 a51816a
    Настройки программы : cabac=0/ref=3/deblock=1:0:0/analyse=0x3:0x113/me=hex/subme=7/psy=1/psy_rd=1.00:0.00/mixed_ref=1/me_range=16/chroma_me=1/trellis=1/8x8dct=1/cqm=0/deadzone=21, 11/fast_pskip=1/chroma_qp_offset=-2/threads=12/sliced_threads=0/nr=0/decimate=1/interlaced=0/constrained_intra=0/bframes=3/b_pyramid=2/b_adapt=1/b_bias=0/direct=1/weightb=1/open_gop=0/weightp=2/keyint=250/keyint_min=25/scenecut=40/intra_refresh=0/rc_lookahead=40/rc=abr/mbtree=1/bitrate=4000/ratetol=1.0/qcomp=0.60/qpmin=0/qpmax=51/qpstep=4/vbv_maxrate=5000/vbv_bufsize=2000/ip_ratio=1.40/aq=1:1.00/nal_hrd=none
    Дата кодирования : UTC 2015-05-29 13:27:31
    Дата пометки : UTC 2015-05-29 18:51:35
    Аудио
    Идентификатор : 2
    Формат : AAC
    Формат/Информация : Advanced Audio Codec
    Профиль формата : LC
    Идентификатор кодека : 40
    Продолжительность : 46 м.
    Вид битрейта : Переменный
    Битрейт : 248 Кбит/сек
    Максимальный битрейт : 333 Кбит/сек
    Каналы : 2 канала
    Расположение каналов : Front: L R
    Частота : 48, 0 КГц
    Метод сжатия : С потерями
    Размер потока : 82, 1 Мбайт (6%)
    Дата кодирования : UTC 2015-05-29 18:51:33
    Дата пометки : UTC 2015-05-29 18:51:35


    Скриншоты для ознакомления




    Супергёрл/Супердевушка/Supergirl (2015) WEB-DLRip [H.264] (Сезон 1, серии 1-2 из 13) LostFilm [MP4|1280x720]
    загрузка...
    Рейтинг →
     (голосов: 1, оценка 3/5, голосовать можно 1 раз )

    Другие торренты по теме:

  • Супергёрл / Супердевушка / Supergirl (2016) WEB-DLRip [H.264 / 1080p-LQ] (сезон 2, серия 1-6 из ) LostFilm (Обновляемая)
  • Супергёрл / Супердевушка / Supergirl (2016) HDTVRip (сезон 2, серия 1-8 из 22) ColdFilm (обновляемая)
  • Супергёрл / Супердевушка / Supergirl (2016) WEB-DLRip [H.264 / 1080p-LQ] (сезон 2, серии 1-18 из 22) LostFilm (обновляемая) [AD]
  • Супергёрл / Супердевушка / Supergirl (2016) WEB-DLRip (сезон 2, серия 1-22 из 22) LostFilm
  • Супердевушка / Супергёрл / Supergirl (2015) HDTVRip (сезон 1, серии 1 из 13) LostFilm (обновляемая) скачать через торрент бесплатно
  • Супердевушка / Супергёрл / Supergirl (2015) HDTVRip [H.264 / 1080p-LQ] (сезон 1, серия 1 из 13) (LostFilm) (обновляемая) скачать через торрент бесплатно
  • Супердевушка / Супергёрл / Supergirl (2015) HDTVRip [H.264] (сезон 1, серия 1 из 13) Lostfilm, Newstudio [MP4|960x544] (обновляемая) скачать через торрент бесплатно


    • Комментарии (0):

      Информация

      Информация

        Посетители, находящиеся в группе Гости, не могут оставлять комментарии в данной новости.

        ↓ Меню




        ↓ Опрос

        Вы добавили сайт в закладки?
        Да
        Нет


        Top 10 за месяц (КПК и мобильные)