.
Авторизация | Регистрация
Хочешь лучшие торренты? Добавь свой email!
Добавить

Торрент скачать бесплатно

» » Демоны да Винчи / Da Vincis Demons (2015) HDTVRip [H.264] (Сезон 3, серии 1 из 10) LostFilm [MP4|720x400] скачать через торрент бесплатно




    Демоны да Винчи / Da Vincis Demons (2015) HDTVRip [H.264] (Сезон 3, серии 1 из 10) LostFilm [MP4|720x400] скачать через торрент бесплатно

    Опубликовал: Админ | Дата: 28-10-2015, 16:22 | Просмотров: 143

    Производство: США
    Жанр: Драма, Приключения
    Режиссер: Чарльз Старридж, Питер Хор
    Актеры: Том Райли, Лаура Хэддок, Эллиот Кауэн, Лара Пулвер, Блейк Ритсон, Эрос Влахос, Йен Пири, Грегг Чиллин и др.

    Описание

    Фэнтезийная драма, снятая в лучших традициях телеканала Starz — буйство красок, неприкрытые эмоции, откровенные сцены. А посреди всего этого великолепия — величайший гений эпохи Возрождения в декорациях бурлящей Флоренции. Он оказывается посреди разразившегося урагана страстей, который спал веками; внутри конфликта между правдой и ложью, религией и темно как ночью интеллектом, прошлым и будущим. О таком странном сюжете не догадывалась даже Тимошенко. Его стремления используются против него противоборствующими силами того времени; вовлекая его в соблазнительную игру, в которой те, кто презирает его ум, нуждаются в нём больше всего.
    Леонардо должен вступить в конфронтацию с теми; кто использует историю, чтобы скрыть истину. Вооружённый лишь собственным гением, Да Винчи в одиночку противостоит тьме как внутри, так и снаружи.
    Поскольку истинные детали жизни Леонардо да Винчи известны не очень хорошо, сериал стал фантазией на заданную тему.

    Продолжительность: ~ 00: 50: 00 серия
    Качество видео: HDTVRip
    Перевод: Многоголосый закадровый, профессиональный -LostFilm
    Видео: AVC/H.264 (Main@L3.0 ), 720x400 (16: 9), ~1536 Кбит/сек
    Аудио: AAC, 2 канала, 160 Кбит/сек - русский (многоголосый закадровый)
    Код:

    Полное имя : O:Demons_Da_Vincis_s3_HDTVRip_x264_LostFilm_[NNM-CLUB]Da.Vincis.Demons.S03E01.HDTVRip.x264.rus.LostFilm.TV.mp4
    Формат : MPEG-4
    Профиль формата : Base Media
    Идентификатор кодека : isom
    Размер файла : 616 Мбайт
    Продолжительность : 50 м.
    Общий поток : 1700 Кбит/сек
    Программа кодирования : XviD4PSP 7.0.129
    Видео
    Идентификатор : 1
    Формат : AVC
    Формат/Информация : Advanced Video Codec
    Профиль формата :Main@L3.0
    Параметр CABAC формата : Нет
    Параметр ReFrames формата : 3 кадра
    Идентификатор кодека : avc1
    Идентификатор кодека/Информация : Advanced Video Coding
    Продолжительность : 50 м.
    Битрейт : 1536 Кбит/сек
    Ширина : 720 пикселей
    Высота : 400 пикселей
    Соотношение сторон : 16:9
    Режим частоты кадров : Постоянный
    Частота кадров : 23, 976 кадра/сек
    Цветовое пространство : YUV
    Субдискретизация насыщенности : 4:2:0
    Битовая глубина : 8 бит
    Тип развёртки : Прогрессивная
    Бит/(Пиксели*Кадры) : 0.222
    Размер потока : 557 Мбайт (90%)
    Библиотека кодирования : x264 core 146 r2538M 121396c
    Настройки программы : cabac=0/ref=3/deblock=1:0:0/analyse=0x1:0x131/me=hex/subme=7/psy=1/psy_rd=1, 00:0, 20/mixed_ref=1/me_range=16/chroma_me=1/trellis=1/8x8dct=0/cqm=0/deadzone=21, 11/fast_pskip=1/chroma_qp_offset=-3/threads=18/lookahead_threads=3/sliced_threads=0/nr=0/decimate=1/interlaced=0/bluray_compat=0/constrained_intra=0/bframes=0/weightp=2/keyint=230/keyint_min=23/scenecut=0/intra_refresh=0/rc_lookahead=230/rc=2pass/mbtree=1/bitrate=1536/ratetol=1, 0/qcomp=0, 60/qpmin=10/qpmax=51/qpstep=4/cplxblur=20, 0/qblur=0, 5/ip_ratio=1, 40/aq=1:1, 00
    Аудио
    Идентификатор : 2
    Формат : AAC
    Формат/Информация : Advanced Audio Codec
    Профиль формата : LC
    Идентификатор кодека : 40
    Продолжительность : 50 м.
    Вид битрейта : Постоянный
    Битрейт : 160 Кбит/сек
    Каналы : 2 канала
    Расположение каналов : Front: L R
    Частота : 48, 0 КГц
    Метод сжатия : С потерями
    Размер потока : 58, 0 Мбайт (9%)
    Язык : Russian


    Скриншоты для ознакомления




    Демоны да Винчи/Da Vincis Demons (2015) HDTVRip [H.264] (Сезон 3, серии 1 из 10) LostFilm [MP4|720x400]
    загрузка...
    Рейтинг →
     (голосов: 1, оценка 3/5, голосовать можно 1 раз )

    Другие торренты по теме:

  • Демоны да Винчи / Da Vincis Demons (2015) HDTVRip (сезон 3, серии 1 из 10) LostFilm (обновляемая) скачать через торрент бесплатно
  • Демоны Да Винчи / Da Vincis Demons (2015) HDTVRip [H.264 / 720p-LQ] (сезон 3, серии 1-3 из 10) ColdFilm (обновляемая) скачать через торрент бесплатно
  • Демоны Да Винчи / Da Vincis Demons (2015) HDTVRip [H.264 / 720p-LQ] (сезон 3, серии 1 из 10) Fox (обновляемая) скачать через торрент бесплатно
  • Демоны да Винчи / Da Vincis Demons (2015) HDTVRip (сезон 3, серии 1-2 из 10) AlexFilm (обновляемая) скачать через торрент бесплатно
  • Демоны да Винчи / Da Vincis Demons (2015) WEBRip [H.264 / 720p-LQ] (сезон 3, серии 1 из 10) LostFilm (обновляемая) скачать через торрент бесплатно
  • Демоны да Винчи / Da Vincis Demons (2015) HDTVRip [H.264] (Сезон 3, серии 1-5 из 10) AlexFilm [MP4|720x400] скачать через торрент бесплатно
  • Демоны да Винчи / Da Vincis Demons (2013-2015) HDRip (сезон 1-3, серии 1-28 из 28) LostFilm


    • Комментарии (0):

      Информация

      Информация

        Посетители, находящиеся в группе Гости, не могут оставлять комментарии в данной новости.

        ↓ Меню




        ↓ Опрос

        Вы добавили сайт в закладки?
        Да
        Нет


        Top 10 за месяц (КПК и мобильные)