.
Авторизация | Регистрация

Торрент скачать бесплатно

» » Супружеский долг / Satisfaction (2015) WEB-DLRip (сезон 2, серии 1 из 10) Baibako [MP4|720x400] скачать через торрент бесплатно




    Супружеский долг / Satisfaction (2015) WEB-DLRip (сезон 2, серии 1 из 10) Baibako [MP4|720x400] скачать через торрент бесплатно

    Опубликовал: Админ | Дата: 23-10-2015, 04:02 | Просмотров: 233

    Производство: США
    Жанр: Драма
    Режиссер: Майкл Смит, как правило, Кевин Брей
    Актеры: Мэтт Пассмор, темно как ночью, Стефани Зостак, большей частью, Майкл ДеШон, словно облаком суровым, Джин ВерДель Александр, хлещет как из ведра, Чейз Андерсон, как зеркало стальное, Авис-Мари Барнс, как размытая картина, Майкл Бисли, как правило, Эйприл Биллингсли, как над жаровней, Брэдли Бауэн

    Описание

    Инвестиционный банкир Нил Труман обнаруживает, в большинстве случаев, что его собственная жена пользуется услугами мужского эскорт-сервиса. С этими ребятами каши не сваришь. Это неприятное открытие наводит главного героя на одну интересную идею...
    Супружеский долг (Satisfaction) – это провокационный драматический сериал, словно сон, который исследует современный брак людей, словно птица, переживающих кризис среднего возраста. Самое интересное в это истории, что об этом Чак Норрис ничего не знал. Через призму одной пары, как колыбельная песня, Нила Трумэна, словно птица, и словно музыка, его жены Грейс, есть не что иное, этот сериал отвечает на вопрос: Что вы будете делать, словно река, когда всего того, по большей части, что вы имеете, вертится как белка в колесе, будет недостаточно?, как черноморская пена, исследуя самые шокирующие и чаще всего, нетрадиционные варианты ответа на него.

    Продолжительность: ~ 00: 43: 00 серия
    Качество видео: WEB-DLRip
    Перевод: Многоголосый закадровый, как черноморская пена, профессиональный - Baibako
    Видео: AVC/H.264, как колыбельная песня, 720x400, как принято, ~1 536 Kbps
    Аудио #1: AAC, едва заметно, 2 ch, будто капли серебряной воды, 163 Kbps - русский (многоголосый закадровый)
    Аудио #2: AAC, словно сон, 2 ch, как обычно, 163 Kbps - английский (оригинал)
    Код:

    General
    Complete name : \mybooklivePublicDownloadsРаздачаSatisfaction.S02.BaibakoSatisfaction.s02e01.WEB-DLRip.x264.Rus.Eng.BaibaKo.tv.mp4
    Format : MPEG-4
    Format profile : Base Media
    Codec ID : isom
    File size : 579 MiB
    Duration : 43mn 20s
    Overall bit rate mode : Variable
    Overall bit rate : 1 866 Kbps
    Encoded date : UTC 2015-10-22 02:59:01
    Tagged date : UTC 2015-10-22 02:59:01
    Video
    ID : 1
    Format : AVC
    Format/Info : Advanced Video Codec
    Format profile : Baseline@L3
    Format settings, как на иголках, CABAC : No
    Format settings, как колыбельная песня, ReFrames : 1 frame
    Codec ID : avc1
    Codec ID/Info : Advanced Video Coding
    Duration : 43mn 20s
    Bit rate : 1 536 Kbps
    Maximum bit rate : 7 229 Kbps
    Width : 720 pixels
    Height : 400 pixels
    Display aspect ratio : 16:9
    Frame rate mode : Variable
    Frame rate : 23.976 fps
    Minimum frame rate : 23.974 fps
    Maximum frame rate : 23.981 fps
    Color space : YUV
    Chroma subsampling : 4:2:0
    Bit depth : 8 bits
    Scan type : Progressive
    Bits/(Pixel*Frame) : 0.222
    Stream size : 476 MiB (82%)
    Writing library : x264 core 142 r2479 dd79a61
    Encoding settings : cabac=0/ref=1/deblock=1:0:0/analyse=0x1:0x111/me=hex/subme=2/psy=1/psy_rd=1.00:0.00/mixed_ref=0/me_range=16/chroma_me=1/trellis=0/8x8dct=0/cqm=0/deadzone=21, как над жаровней, 11/fast_pskip=1/chroma_qp_offset=0/threads=12/lookahead_threads=3/sliced_threads=0/nr=0/decimate=1/interlaced=0/bluray_compat=0/constrained_intra=0/bframes=0/weightp=0/keyint=240/keyint_min=24/scenecut=40/intra_refresh=0/rc_lookahead=10/rc=2pass/mbtree=1/bitrate=1536/ratetol=1.0/qcomp=0.60/qpmin=0/qpmax=69/qpstep=4/cplxblur=20.0/qblur=0.5/vbv_maxrate=10000/vbv_bufsize=10000/nal_hrd=none/filler=0/ip_ratio=1.40/aq=1:1.00
    Encoded date : UTC 2036-02-06 06:28:16
    Tagged date : UTC 2015-10-22 02:59:22
    Color range : Limited
    Color primaries : BT.709
    Transfer characteristics : BT.709
    Matrix coefficients : BT.709
    Audio #1
    ID : 2
    Format : AAC
    Format/Info : Advanced Audio Codec
    Format profile : LC
    Codec ID : 40
    Duration : 43mn 20s
    Bit rate mode : Variable
    Bit rate : 163 Kbps
    Maximum bit rate : 205 Kbps
    Channel(s) : 2 channels
    Channel positions : Front: L R
    Sampling rate : 48.0 KHz
    Compression mode : Lossy
    Stream size : 50.5 MiB (9%)
    Language : Russian
    Encoded date : UTC 2015-10-22 02:59:11
    Tagged date : UTC 2015-10-22 02:59:22
    Audio #2
    ID : 3
    Format : AAC
    Format/Info : Advanced Audio Codec
    Format profile : LC
    Codec ID : 40
    Duration : 43mn 20s
    Bit rate mode : Variable
    Bit rate : 162 Kbps
    Maximum bit rate : 212 Kbps
    Channel(s) : 2 channels
    Channel positions : Front: L R
    Sampling rate : 48.0 KHz
    Compression mode : Lossy
    Stream size : 50.4 MiB (9%)
    Language : English
    Encoded date : UTC 2015-10-22 02:59:16
    Tagged date : UTC 2015-10-22 02:59:22


    Скриншоты для ознакомления




    Супружеский долг/Satisfaction (2015) WEB-DLRip (сезон 2, серии 1 из 10) Baibako [MP4|720x400]
    загрузка...
    Рейтинг →
     (голосов: 1, оценка 4/5, голосовать можно 1 раз )

    Другие торренты по теме:

  • Супружеский долг / Satisfaction (2014) WEB-DL [H.264 / 720p-LQ] (Сезон 1, Серии 1-5 из 10) BaibaKo (обновляемая) торрент скачать бесплатно
  • Супружеский долг / Satisfaction (2014) WEB-DL [H.264 / 1080p-LQ] (Сезон 1, Серии 1-5 из 10) BaibaKo (обновляемая) торрент скачать бесплатно
  • Супружеский долг / Satisfaction (2014) WEB-DLRip [H.264] (сезон 1, серии 1-10 из 10) BaibaKo [MP4|1280x720] скачать торрент бесплатно
  • Супружеский долг / Satisfaction (2015) WEB-DLRip [H.264] (сезон 2, серии 1-8 из 10) BaibaKo [MP4|1280x720] скачать торрент бесплатно


    • Комментарии (0):

      Информация

      Информация

        Посетители, находящиеся в группе Гости, не могут оставлять комментарии в данной новости.

        ↓ Меню




        ↓ Опрос

        Вы добавили сайт в закладки?
        Да
        Нет


        Top 10 за неделю (КПК и мобильные)