.
Авторизация | Регистрация
Хочешь лучшие торренты? Добавь свой email!
Добавить

Торрент скачать бесплатно

» » Полиция Гавайев / Гавайи 5.0 / Hawaii Five-0 (2015) WEB-DL [H.264] (Сезон 6, серия 1 из 6()) LostFilm [MP4|1280x720] скачать через торрент бесплатно




    Полиция Гавайев / Гавайи 5.0 / Hawaii Five-0 (2015) WEB-DL [H.264] (Сезон 6, серия 1 из 6()) LostFilm [MP4|1280x720] скачать через торрент бесплатно

    Опубликовал: Админ | Дата: 30-09-2015, 04:00 | Просмотров: 315

    Производство: США
    Жанр: Боевик, драма, криминал
    Режиссер: Брайан Спайсер
    Актеры: Алекс О’Локлин, Скотт Каан, Дэниэл Дэ Ким, Грейс Пак, Маси Ока, Мишелль Борт и др.

    Описание

    Детектив Стив МакГарретт, бывший морской офицер с массой наград, а теперь полицейский, возвращается в Оаху расследовать убийство отца. Он остается на острове, после того, как губернатор штата Гавайи убедил его возглавить новую команду. Команда будет действовать по его правилам, при поддержке губернатора, без бюрократических проволочек, и с полным иммунитетом, все это – чтобы поймать самую крупную дичь в городе. К МакГаррету присоединяется детектив Дэнни Данно Уильямс, недавно переведенный из Нью-Джерси полицейский, который предпочел бы небоскребы пляжам, но готов бороться с преступностью, чтобы его 8-летняя дочь чувствовала себя на островах в безопасности; и Чин Хо Келли, бывший детектив полиции Гонолулу, которого ошибочно обвинили в коррупции, и который когда-то был протеже отца МакГаррета. Двоюродная сестра Чина, Коно, прекрасная и бесстрашная уроженка островов, недавно выпустилась из академии, и рвется доказать, что она достойна места в элите департамента. МакГаррет клянется завершить дело отца, а члены нового спецотряда Five-O, может, и грызутся друг с другом, но настроены уничтожить преступность в пятидесятом штате.

    Продолжительность: ~ 00: 44: 00 серия
    Качество видео: WEB-DL 720p
    Перевод: Многоголосый закадровый, профессиональный -LostFilm
    Озвучка/Автор перевода: Студия LostFilm
    Видео: AVC/H.264 (High@L3.1 ), 1280x720 (16: 9), ~4000 Кбит/сек
    Аудио: AAC, 2 канала, 245 Кбит/сек - русский (многоголосый закадровый, LostFilm)
    Код:

    Полное имя : F:Hawaii_Five-0_s6_WEB-DL720p_x264_LostFilm_[NNM-CLUB]Hawaii.Five-0.S06E01.720p.WEB.rus.LostFilm.TV.mp4
    Формат : MPEG-4
    Профиль формата : Base Media
    Идентификатор кодека : isom
    Размер файла : 1, 33 Гбайт
    Продолжительность : 44 м.
    Режим общего битрейта : Переменный
    Общий поток : 4305 Кбит/сек
    Коллекция : Полиция Гавайев
    Сезон : 6
    Альбом : Полиция Гавайев, Сезон 6
    Альбом/Исполнитель : Полиция Гавайев
    Часть : 1
    Часть/Положение : 6
    Трек : Не мутите спокойные воды
    Трек/Положение : 1
    Исполнитель : Полиция Гавайев
    Жанр : Drama
    Тип содержимого : TV Show
    Дата записи : 2015
    Дата кодирования : UTC 2015-09-27 19:52:22
    Дата пометки : UTC 2015-09-27 19:52:22
    Программа кодирования : Yamb 2.1.0.0 [http://yamb.unite-video.com]/LostCoder
    Правообладатель : LostFilm.TV(c)
    Примечание : Детектив Стив МакГарретт, бывший морской офицер, возвращается на Гавайи, чтобы расследовать смерть отца. Он остается на острове после того, как губернатор Гавайев убедила его воглавить новую команду, которая поймает самую крупную дичь в городе.
    Part_ID : 601
    Видео
    Идентификатор : 1
    Формат : AVC
    Формат/Информация : Advanced Video Codec
    Профиль формата :High@L3.1
    Параметр CABAC формата : Нет
    Параметр ReFrames формата : 2 кадра
    Идентификатор кодека : avc1
    Идентификатор кодека/Информация : Advanced Video Coding
    Продолжительность : 44 м.
    Битрейт : 4000 Кбит/сек
    Максимальный битрейт : 13, 4 Мбит/сек
    Ширина : 1280 пикселей
    Высота : 720 пикселей
    Соотношение сторон : 16:9
    Режим частоты кадров : Переменный
    Частота кадров : 23, 976 кадра/сек
    Минимальная частота кадров : 23, 974 кадра/сек
    Максимальная частота кадров : 23, 981 кадра/сек
    Цветовое пространство : YUV
    Субдискретизация насыщенности : 4:2:0
    Битовая глубина : 8 бит
    Тип развёртки : Прогрессивная
    Бит/(Пиксели*Кадры) : 0.181
    Размер потока : 1, 26 Гбайт (94%)
    Библиотека кодирования : x264 core 112 r1834 a51816a
    Настройки программы : cabac=0/ref=3/deblock=1:0:0/analyse=0x1:0x111/me=hex/subme=7/psy=1/psy_rd=1.00:0.00/mixed_ref=1/me_range=16/chroma_me=1/trellis=1/8x8dct=0/cqm=0/deadzone=21, 11/fast_pskip=1/chroma_qp_offset=-2/threads=6/sliced_threads=0/nr=0/decimate=1/interlaced=0/constrained_intra=0/bframes=3/b_pyramid=2/b_adapt=1/b_bias=0/direct=1/weightb=1/open_gop=0/weightp=2/keyint=250/keyint_min=25/scenecut=40/intra_refresh=0/rc_lookahead=40/rc=abr/mbtree=1/bitrate=4000/ratetol=1.0/qcomp=0.60/qpmin=0/qpmax=51/qpstep=4/vbv_maxrate=5000/vbv_bufsize=2000/ip_ratio=1.40/aq=1:1.00/nal_hrd=none
    Язык : English
    Дата пометки : UTC 2015-09-27 19:53:01
    Основные цвета : BT.709
    Характеристики трансфера : BT.709
    Коэффициенты матрицы : BT.709
    Аудио
    Идентификатор : 2
    Формат : AAC
    Формат/Информация : Advanced Audio Codec
    Профиль формата : LC
    Идентификатор кодека : 40
    Продолжительность : 44 м.
    Вид битрейта : Переменный
    Битрейт : 245 Кбит/сек
    Максимальный битрейт : 316 Кбит/сек
    Каналы : 2 канала
    Расположение каналов : Front: L R
    Частота : 48, 0 КГц
    Метод сжатия : С потерями
    Размер потока : 77, 9 Мбайт (6%)
    Дата кодирования : UTC 2015-09-27 19:53:00
    Дата пометки : UTC 2015-09-27 19:53:01


    Скриншоты для ознакомления




    Полиция Гавайев/Гавайи 5.0/Hawaii Five-0 (2015) WEB-DL [H.264] (Сезон 6, серия 1 из 6()) LostFilm [MP4|1280x720]
    загрузка...
    Рейтинг →
     (голосов: 1, оценка 3/5, голосовать можно 1 раз )

    Другие торренты по теме:

  • Полиция Гавайев (Hawaii Five-0) / (5 Сезон, 1 серии из 22) LostFilm (2014) [MP4|720p-LQ] <WEB-DLRip H.264> (oбновляемая) скачать через торрент бесплатно
  • Полиция Гавайев / Гавайи 5-0 / Hawaii Five-0 (2014) WEB-DL [H.264 / 720p-LQ] (Сезон 5, серия 1 из ) (LostFilm) (обновляемая) скачать через торрент бесплатно
  • Полиция Гавайев (Гавайи 5.0) (Hawaii Five-0) / (Сезон 5, серии 1-11 из ) LostFilm (2014) [MP4|1280x720] <WEB-DLRip [H.264]>
  • Гавайи 5-0 / Полиция Гавайев / Hawaii Five-0 (2015) WEB-DLRip (сезон 6, серии 1 из 25) LostFilm (обновляемая) скачать через торрент бесплатно
  • Гавайи 5-0 / Полиция Гавайев / Hawaii Five-0 (2016) WEB-DLRip (сезон 7, серии 1 из ) LostFilm (обновляемая)
  • Полиция Гавайев / Гавайи 5.0 / Hawaii Five-0 (2016) WEB-DL [H.264] (сезон 7, серии 1-8 из ) LostFilm [MP4|1280x720]
  • Гавайи 5-0 / Полиция Гавайев / Hawaii Five-0 (2016) WEB-DLRip (сезон 7, серии 1-18 из 25) LostFilm (обновляемая)
  • Полиция Гавайев / Гавайи 5.0 / Hawaii Five-0 (2016) WEB-DL [H.264] (сезон 7, серии 1-22 из 25) LostFilm [MP4|1280x720] [AD]


    • Комментарии (0):

      Информация

      Информация

        Посетители, находящиеся в группе Гости, не могут оставлять комментарии в данной новости.

        ↓ Меню




        ↓ Опрос

        Вы добавили сайт в закладки?
        Да
        Нет


        Top 10 за месяц (КПК и мобильные)