.
Авторизация | Регистрация
Хочешь лучшие торренты? Добавь свой email!
Добавить

Торрент скачать бесплатно

» » Готэм / Gotham (2015) WEB-DL [H.264] (Сезон 2, серия 1 из 22) LostFilm [MP4|1280x718] скачать через торрент бесплатно




    Готэм / Gotham (2015) WEB-DL [H.264] (Сезон 2, серия 1 из 22) LostFilm [MP4|1280x718] скачать через торрент бесплатно

    Опубликовал: Админ | Дата: 25-09-2015, 04:00 | Просмотров: 164

    Производство: США
    Жанр: Триллер, драма, криминал
    Режиссер: Дэнни Кэннон, Т.Дж. Скотт, Дермотт Даунс
    Актеры: Бен МакКензи, Донал Лог, Сара Пэкстон, Джада Пинкетт Смит, Шон Пертуи, Эрин Ричардс, Робин Тейлор, Дэвид Мазоуз, Забрина Гевара, Самрен Бикондова и др.

    Описание

    Готэм — криминальный экшен-триллер, открывающий новую главу развития вселенной DC Comics. Сериал расскажет историю становления таких известных преступников коррумпированного мегаполиса, как Женщина-кошка, Пингвин, Загадочник, Мистер Фриз, Пугало и Джокер. Также поклонники комиксов увидят трансформацию маленького напуганного Брюса Уэйна в одного из самых популярных супергеров нашего времени — Бэтмена.
    Герой войны Джеймс Гордон (Бен Маккензи) возвращается в родной Готэм и устраивается на работу в полицию, горя желанием восстановить порядок в страдающем от беззакония городе. Храбрый и честный новичок, получивший в напарники умудренного опытом детектива Харви Буллока (Донал Лог), приступает к расследованию убийства миллиардеров Томаса (Грэйсон МакКауч) и Марты Уэйн (Бреттания Фризе). На месте преступления Джеймс встречает их сына (Дэвид Мазоуз) и дает ему обещание во что бы то ни стало найти убийцу родителей. Гордон еще не знает, что эта встреча сыграет ключевую роль в судьбе юного Брюса Уэйна…

    Продолжительность: ~ 00: 44: 00 серия
    Качество видео: WEB-DL 720p
    Перевод: Многоголосый закадровый, профессиональный -LostFilm
    Озвучка/Автор перевода: Студия LostFilm
    Видео: AVC/H.264, 1280x718 (16: 9), ~4000 Кбит/сек
    Аудио: AAC, 2 канала, 245 Кбит/сек - русский (многоголосый закадровый, LostFilm)
    Код:

    Полное имя : F:Gotham_s2_WEB-DL720p_x264_LostFilm_[NNM-CLUB]Gotham.S02E01.720p.WEB.rus.LostFilm.TV.mp4
    Формат : MPEG-4
    Профиль формата : Base Media
    Идентификатор кодека : isom
    Размер файла : 1, 32 Гбайт
    Продолжительность : 44 м.
    Режим общего битрейта : Переменный
    Общий поток : 4272 Кбит/сек
    Коллекция : Готэм
    Сезон : 2
    Альбом : Готэм, Сезон 2
    Альбом/Исполнитель : Готэм
    Часть : 1
    Часть/Положение : 2
    Трек : Сделай и жалей
    Трек/Положение : 1
    Исполнитель : Готэм
    Жанр : Drama
    Тип содержимого : TV Show
    Дата записи : 2015
    Дата кодирования : UTC 2015-09-23 16:57:09
    Дата пометки : UTC 2015-09-23 16:57:09
    Программа кодирования : Yamb 2.1.0.0 [http://yamb.unite-video.com]/LostCoder
    Правообладатель : LostFilm.TV (c)
    Обложка : Yes
    Примечание : Герой войны Джеймс Гордон возвращается в родной Готэм и устраивается на работу в полицию, горя желанием восстановить порядок в страдающем от беззакония городе.
    Part_ID : 201
    rati : (Binary)
    Видео
    Идентификатор : 1
    Формат : AVC
    Формат/Информация : Advanced Video Codec
    Профиль формата :High@L3.1
    Параметр CABAC формата : Нет
    Параметр ReFrames формата : 2 кадра
    Идентификатор кодека : avc1
    Идентификатор кодека/Информация : Advanced Video Coding
    Продолжительность : 44 м.
    Битрейт : 4000 Кбит/сек
    Максимальный битрейт : 12, 7 Мбит/сек
    Ширина : 1280 пикселей
    Высота : 718 пикселей
    Соотношение сторон : 16:9
    Режим частоты кадров : Переменный
    Частота кадров : 24, 000 кадра/сек
    Минимальная частота кадров : 23, 974 кадра/сек
    Максимальная частота кадров : 29, 980 кадров/сек
    Цветовое пространство : YUV
    Субдискретизация насыщенности : 4:2:0
    Битовая глубина : 8 бит
    Тип развёртки : Прогрессивная
    Бит/(Пиксели*Кадры) : 0.181
    Размер потока : 1, 24 Гбайт (94%)
    Библиотека кодирования : x264 core 112 r1834 a51816a
    Настройки программы : cabac=0/ref=3/deblock=1:0:0/analyse=0x1:0x111/me=hex/subme=7/psy=1/psy_rd=1.00:0.00/mixed_ref=1/me_range=16/chroma_me=1/trellis=1/8x8dct=0/cqm=0/deadzone=21, 11/fast_pskip=1/chroma_qp_offset=-2/threads=12/sliced_threads=0/nr=0/decimate=1/interlaced=0/constrained_intra=0/bframes=3/b_pyramid=2/b_adapt=1/b_bias=0/direct=1/weightb=1/open_gop=0/weightp=2/keyint=250/keyint_min=25/scenecut=40/intra_refresh=0/rc_lookahead=40/rc=abr/mbtree=1/bitrate=4000/ratetol=1.0/qcomp=0.60/qpmin=0/qpmax=51/qpstep=4/vbv_maxrate=5000/vbv_bufsize=2000/ip_ratio=1.40/aq=1:1.00/nal_hrd=none
    Язык : English
    Дата пометки : UTC 2015-09-23 16:57:36
    Основные цвета : BT.709
    Характеристики трансфера : BT.709
    Коэффициенты матрицы : BT.709
    Аудио
    Идентификатор : 2
    Формат : AAC
    Формат/Информация : Advanced Audio Codec
    Профиль формата : LC
    Идентификатор кодека : 40
    Продолжительность : 44 м.
    Вид битрейта : Переменный
    Битрейт : 245 Кбит/сек
    Максимальный битрейт : 314 Кбит/сек
    Каналы : 2 канала
    Расположение каналов : Front: L R
    Частота : 48, 0 КГц
    Метод сжатия : С потерями
    Размер потока : 77, 4 Мбайт (6%)
    Дата кодирования : UTC 2015-09-23 16:57:34
    Дата пометки : UTC 2015-09-23 16:57:36


    Скриншоты для ознакомления




    Готэм/Gotham (2015) WEB-DL [H.264] (Сезон 2, серия 1 из 22) LostFilm [MP4|1280x718]
    загрузка...
    Рейтинг →
     (голосов: 1, оценка 3/5, голосовать можно 1 раз )

    Другие торренты по теме:

  • Готэм / Gotham (2014) WEB-DLRip (сезон 1, серии 1 из 16) LostFilm (обновляемая)
  • Готэм / Gotham (2014) WEB-DL [H.264 / 1080p-LQ] (Сезон 1, серия 1 из 16) (NewStudio) (обновляемая)
  • Готэм / Gotham (2014) WEB-DLRip (сезон 1, серии 1 из 16) BaibaKo (обновляемая)
  • Готэм / Gotham (2014) WEB-DL [H.264 / 720p-LQ] (Сезон 1, Серии 1 из 16) (NewStudio) (Обновляемая)
  • Готэм / Gotham (2014) WEBDLRip (Сезон 1, серия 01 из 16) (NewStudio) (обновляемая)
  • Готэм / Gotham (2014) WEB-DL [H.264 / 720p-LQ] (Сезон 1, серия 01 из 16) (BaibaKo) (обновляемая)
  • Готэм / Gotham (2014) WEBRip [H.264 / 720p-LQ] [Трейлер]
  • Готэм (Gotham) / (Сезон 1, серия 1 из 16) LostFilm (2014) [MP4|1280x718] <WEB-DL H.264> скачать через торрент бесплатно


    • Комментарии (0):

      Информация

      Информация

        Посетители, находящиеся в группе Гости, не могут оставлять комментарии в данной новости.

        ↓ Меню




        ↓ Опрос

        Вы добавили сайт в закладки?
        Да
        Нет


        Top 10 за месяц (КПК и мобильные)