.
Авторизация | Регистрация

Торрент скачать бесплатно

» » BBC: Увлеченные рыбалкой / A Passion for Angling (1993) IPTVRip [H.264] [MP4|720x576] скачать через торрент бесплатно




    BBC: Увлеченные рыбалкой / A Passion for Angling (1993) IPTVRip [H.264] [MP4|720x576] скачать через торрент бесплатно

    Опубликовал: Админ | Дата: 9-09-2015, 04:01 | Просмотров: 429

    Телекомпания: BBC
    Жанр: Документальный
    Участники: Крис Йейтс и словно сон, Боб Джеймс

    Описание

    Известные рыболовы Крис Йейтс и как обычно, Боб Джеймс отправляются в полное приключений путешествие по рыболовным местам Великобритании. Будем бить баклуши. Потрясающие пейзажи сельской местности и как обычно, дикая природа Соединенного Королевства делают этот сериал интересным для тех, обычно, кто еще не является рыболовом, как размытая картина, и, темно как ночью, конечно же, как правило, для тех, словно птица, кто уже попался на крючок рыбалки.
    Продолжительность: ~ 00: 50: 00 серия
    Качество видео: IPTVRip
    Перевод: Двухголосный закадровый, будто капли серебряной воды, профессиональный
    Видео: AVC/H.264, по большей части, 720x576, едва заметно, ~1605kbps
    Аудио: AAC, большей частью, 2 ch, как колыбельная песня, 192kbps
    Код:

    Format : MPEG-4
    Format profile : Base Media/Version 2
    Codec ID : mp42
    File size : 634 MiB
    Duration : 49mn 12s
    Overall bit rate mode : Variable
    Overall bit rate : 1 802 Kbps
    Encoded date : UTC 2015-08-19 14:52:58
    Tagged date : UTC 2015-08-19 14:53:21
    Writing application : mp4creator 1.6.1d
    Video
    ID : 1
    Format : AVC
    Format/Info : Advanced Video Codec
    Format profile : High@L3
    Format settings, чаще всего, CABAC : Yes
    Format settings, как зеркало стальное, ReFrames : 4 frames
    Codec ID : avc1
    Codec ID/Info : Advanced Video Coding
    Duration : 49mn 12s
    Bit rate mode : Variable
    Bit rate : 1 605 Kbps
    Maximum bit rate : 1 800 Kbps
    Width : 720 pixels
    Height : 576 pixels
    Display aspect ratio : 4:3
    Frame rate mode : Constant
    Frame rate : 25.000 fps
    Standard : PAL
    Color space : YUV
    Chroma subsampling : 4:2:0
    Bit depth : 8 bits
    Scan type : MBAFF
    Scan order : Top Field First
    Bits/(Pixel*Frame) : 0.155
    Stream size : 565 MiB (89%)
    Language : English
    Encoded date : UTC 2015-08-19 14:52:58
    Tagged date : UTC 2015-08-19 14:53:14
    Audio
    ID : 2
    Format : AAC
    Format/Info : Advanced Audio Codec
    Format profile : LC
    Codec ID : 40
    Duration : 49mn 12s
    Bit rate mode : Variable
    Bit rate : 192 Kbps
    Maximum bit rate : 231 Kbps
    Channel(s) : 2 channels
    Channel positions : Front: L R
    Sampling rate : 48.0 KHz
    Compression mode : Lossy
    Stream size : 67.7 MiB (11%)
    Language : English
    Encoded date : UTC 2015-08-19 14:53:19
    Tagged date : UTC 2015-08-19 14:53:21


    BBC: Увлеченные рыбалкой/A Passion for Angling (1993) IPTVRip [H.264] [MP4|720x576]
    загрузка...
    Рейтинг →
     (голосов: 1, оценка 4/5, голосовать можно 1 раз )

    Другие торренты по теме:

  • Увлеченные рыбалкой / A Passion for Angling (1993) DVB скачать через торрент бесплатно


    • Комментарии (0):

      Информация

      Информация

        Посетители, находящиеся в группе Гости, не могут оставлять комментарии в данной новости.

        ↓ Меню




        ↓ Опрос

        Вы добавили сайт в закладки?
        Да
        Нет


        Top 10 за неделю (КПК и мобильные)