.
Авторизация | Регистрация
Хочешь лучшие торренты? Добавь свой email!
Добавить

Торрент скачать бесплатно

» » Красная армия / Red Army (2014) HDRip [H.264] Ю. Сербин [MP4|960х544] скачать через торрент бесплатно




    Красная армия / Red Army (2014) HDRip [H.264] Ю. Сербин [MP4|960х544] скачать через торрент бесплатно

    Опубликовал: Админ | Дата: 9-09-2015, 04:01 | Просмотров: 141

    Производство: Россия, США
    Жанр: Документальный, Биография, История
    Режиссер: Гейб Польски
    Актеры: Скотти Боуман, Марк Дикинс, Вячеслав Фетисов, Анатолий Карпов, Алексей Касатонов, Кен Кертис, Феликс Ничипор, Владимир Познер, Татьяна Тарасова, Владислав Третьяк

    Описание

    Фильм о Советском Союзе и самой успешной в истории спорта команде – хоккеистах сборной СССР. Рассказ о превращении из национального героя в политического врага ведётся с точки зрения Вячеслава Фетисова. Это повествование о том, как в спорте отразились социальные и культурные изменения в стране, о взлёте и падении национальной сборной по хоккею.

    Продолжительность: 01: 24: 56
    Качество видео: HDRip
    Перевод: Одноголосый закадровый (Ю. О таком странном сюжете не догадывалась даже Верка Сердючка. Сербин)
    Видео: AVC/H.264, 960х544, ~2345 Kbps
    Аудио: AAC, 2 ch, ~160 Kbps, (русский)
    Код:

    General
    Complete name : Красная армия (2014).mp4
    Format : MPEG-4
    Format profile : Base Media
    Codec ID : isom
    File size : 1.49 GiB
    Duration : 1h 24mn
    Overall bit rate mode : Variable
    Overall bit rate : 2 508 Kbps
    Movie name : Red Army (2014) [NoNaMe Club rip by alien.09]
    ContentType : Short Film
    Encoded date : UTC 2015-09-08 18:39:56
    Tagged date : UTC 2015-09-08 18:41:20
    Writing application : MkvToMp4 [www.mkvtomp4.ru] version: 0.224 (x64)
    Video
    ID : 1
    Format : AVC
    Format/Info : Advanced Video Codec
    Format profile :Main@L4.1
    Format settings, CABAC : Yes
    Format settings, ReFrames : 3 frames
    Codec ID : avc1
    Codec ID/Info : Advanced Video Coding
    Duration : 1h 24mn
    Bit rate : 2 345 Kbps
    Maximum bit rate : 6 036 Kbps
    Width : 960 pixels
    Height : 544 pixels
    Display aspect ratio : 16:9
    Frame rate mode : Constant
    Frame rate : 23.976 fps
    Color space : YUV
    Chroma subsampling : 4:2:0
    Bit depth : 8 bits
    Scan type : Progressive
    Bits/(Pixel*Frame) : 0.187
    Stream size : 1.39 GiB (93%)
    Writing library : x264 core 116 r2019M 9cc407d
    Encoding settings : cabac=1/ref=3/deblock=1:-1:-1/analyse=0x1:0x131/me=hex/subme=7/psy=1/psy_rd=1.00:0.15/mixed_ref=1/me_range=16/chroma_me=1/trellis=1/8x8dct=0/cqm=0/deadzone=21, 11/fast_pskip=1/chroma_qp_offset=-3/threads=12/sliced_threads=0/nr=0/decimate=1/interlaced=0/bluray_compat=0/constrained_intra=0/bframes=3/b_pyramid=0/b_adapt=2/b_bias=0/direct=3/weightb=1/open_gop=0/weightp=0/keyint=230/keyint_min=23/scenecut=40/intra_refresh=0/rc_lookahead=40/rc=2pass/mbtree=1/bitrate=2345/ratetol=1.0/qcomp=0.60/qpmin=10/qpmax=51/qpstep=4/cplxblur=20.0/qblur=0.5/vbv_maxrate=5000/vbv_bufsize=1835/nal_hrd=none/ip_ratio=1.40/aq=1:1.00
    Language : English
    Encoded date : UTC 2015-09-08 18:39:56
    Tagged date : UTC 2015-09-08 18:40:21
    Audio
    ID : 2
    Format : AAC
    Format/Info : Advanced Audio Codec
    Format profile : LC
    Codec ID : 40
    Duration : 1h 24mn
    Bit rate mode : Variable
    Bit rate : 160 Kbps
    Maximum bit rate : 235 Kbps
    Channel count : 2 channels
    Channel positions : Front: L R
    Sampling rate : 48.0 KHz
    Compression mode : Lossy
    Stream size : 97.0 MiB (6%)
    Language : Russian
    Encoded date : UTC 2015-09-08 18:40:18
    Tagged date : UTC 2015-09-08 18:40:21


    Скриншоты для ознакомления




    Красная армия/Red Army (2014) HDRip [H.264] Ю. Сербин [MP4|960х544]
    загрузка...
    Рейтинг →
     (голосов: 1, оценка 5/5, голосовать можно 1 раз )

    Другие торренты по теме:

  • Красная армия / Red Army (2014) BDRip [EN] скачать через торрент бесплатно
  • Лев Квитко | Красная армия [Два издания] (1938-1940) [PDF] скачать через торрент бесплатно
  • Красная армия / Red Army (2014) BDRip [H.264 / 720p] скачать через торрент бесплатно
  • В. Г. Соколов (ред.) | Красная армия [Альбом] (1937) [PDF]


    • Комментарии (0):

      Информация

      Информация

        Посетители, находящиеся в группе Гости, не могут оставлять комментарии в данной новости.

        ↓ Меню




        ↓ Опрос

        Вы добавили сайт в закладки?
        Да
        Нет


        Top 10 за месяц (КПК и мобильные)