.
Авторизация | Регистрация
Хочешь лучшие торренты? Добавь свой email!
Добавить

Торрент скачать бесплатно

» » Доминион / Dominion (2015) WEB-DLRip [H.264] (Сезон 2, серии 1-7 из 13) NewStudio [MP4|720x400] скачать через торрент бесплатно




    Доминион / Dominion (2015) WEB-DLRip [H.264] (Сезон 2, серии 1-7 из 13) NewStudio [MP4|720x400] скачать через торрент бесплатно

    Опубликовал: Админ | Дата: 23-08-2015, 04:03 | Просмотров: 145

    Производство: США
    Жанр: ужасы, фантастика, фэнтези, боевик, драма
    Режиссер: Скотт Чарльз Стюарт
    Актеры: Карл Бьюкс, Алан Дэйл, Кристофер Иган, Крис Фишер, Шивани Гаи, Розалинд Халстэд, Энтони Хэд, Антон Дэвид Джефта, Лэнгли Кирквуд, Роксанна МакКи и др.

    Описание

    Новый сериал Доминион основан на персонажах фильма Легион. Сюжет развернется спустя много лет после действий фильма. В 25 году после нашей эры армия ангелов, возглавляемая архангелом Гавриилом ведет кровопролитную войну против всего человечества. Один лишь архангел Михаил решает принять сторону людей и выступить против себе подобных. После долгих 25 лет сражений, укрепившиеся города защищают оставшихся в живых и держат последнюю линию обороны. Самый большой среди уцелевших городов — Вега (бывший Лас Вегас). Казалось бы, в этой войне люди должны быть сплочены перед лицом врага. Но в Веге ведется постоянное противостояние двух сторон за контроль над городом и готовится государственный переворот. В это же время молодой человек, непокорный солдат, отправляется в путешествие, в ходе которого он делает потрясающее открытие о том, что он, по всей видимости – спаситель человечества...

    Продолжительность: ~ 00: 43: 00 серия
    Качество видео: WEB-DLRip
    Перевод: Многоголосый закадровый, профессиональный -NewStudio
    Видео: AVC/H.264, 720x400 (16: 9), ~1536 Кбит/сек
    Аудио #1: AAC, 2 канала, 160 Кбит/сек - русский (многоголосый закадровый)
    Аудио #2: AAC, 2 канала, 160 Кбит/сек - английский (оригинальный)
    Код:

    Полное имя : D:Dominion_s2_WEB-DLRip_x264_NewStudio_[NNM-CLUB]Dominion.s02e01.WEB-DLRip.x264.Rus.Eng.NewStudio.mp4
    Формат : MPEG-4
    Профиль формата : Base Media
    Идентификатор кодека : isom
    Размер файла : 565 Мбайт
    Продолжительность : 42 м.
    Общий поток : 1863 Кбит/сек
    Программа кодирования : XviD4PSP 7.0.129
    Видео
    Идентификатор : 1
    Формат : AVC
    Формат/Информация : Advanced Video Codec
    Профиль формата :Main@L3.0
    Параметр CABAC формата : Нет
    Параметр ReFrames формата : 3 кадра
    Идентификатор кодека : avc1
    Идентификатор кодека/Информация : Advanced Video Coding
    Продолжительность : 42 м.
    Битрейт : 1536 Кбит/сек
    Ширина : 720 пикселей
    Высота : 400 пикселей
    Соотношение сторон : 16:9
    Режим частоты кадров : Постоянный
    Частота кадров : 23, 976 кадра/сек
    Цветовое пространство : YUV
    Субдискретизация насыщенности : 4:2:0
    Битовая глубина : 8 бит
    Тип развёртки : Прогрессивная
    Бит/(Пиксели*Кадры) : 0.222
    Размер потока : 466 Мбайт (82%)
    Библиотека кодирования : x264 core 146 r2538M 121396c
    Настройки программы : cabac=0/ref=3/deblock=1:0:0/analyse=0x1:0x131/me=hex/subme=7/psy=1/psy_rd=1, 00:0, 20/mixed_ref=1/me_range=16/chroma_me=1/trellis=1/8x8dct=0/cqm=0/deadzone=21, 11/fast_pskip=1/chroma_qp_offset=-3/threads=20/lookahead_threads=3/sliced_threads=0/nr=0/decimate=1/interlaced=0/bluray_compat=0/constrained_intra=0/bframes=0/weightp=2/keyint=230/keyint_min=23/scenecut=0/intra_refresh=0/rc_lookahead=230/rc=2pass/mbtree=1/bitrate=1536/ratetol=1, 0/qcomp=0, 60/qpmin=10/qpmax=51/qpstep=4/cplxblur=20, 0/qblur=0, 5/ip_ratio=1, 40/aq=1:1, 00
    Язык : English
    Основные цвета : BT.709
    Характеристики трансфера : BT.709
    Коэффициенты матрицы : BT.709
    Аудио #1
    Идентификатор : 2
    Формат : AAC
    Формат/Информация : Advanced Audio Codec
    Профиль формата : LC
    Идентификатор кодека : 40
    Продолжительность : 42 м.
    Вид битрейта : Постоянный
    Битрейт : 160 Кбит/сек
    Каналы : 2 канала
    Расположение каналов : Front: L R
    Частота : 48, 0 КГц
    Метод сжатия : С потерями
    Размер потока : 48, 5 Мбайт (9%)
    Заголовок : NewStudio.TV
    Язык : Russian
    Аудио #2
    Идентификатор : 3
    Формат : AAC
    Формат/Информация : Advanced Audio Codec
    Профиль формата : LC
    Идентификатор кодека : 40
    Продолжительность : 42 м.
    Вид битрейта : Постоянный
    Битрейт : 160 Кбит/сек
    Каналы : 2 канала
    Расположение каналов : Front: L R
    Частота : 48, 0 КГц
    Метод сжатия : С потерями
    Размер потока : 48, 5 Мбайт (9%)
    Язык : English


    Скриншоты для ознакомления




    Доминион/Dominion (2015) WEB-DLRip [H.264] (Сезон 2, серии 1-7 из 13) NewStudio [MP4|720x400]
    загрузка...
    Рейтинг →
     (голосов: 1, оценка 3/5, голосовать можно 1 раз )

    Другие торренты по теме:

  • Доминион / Dominion (2014) WEB-DLRip (сезон 1, 8 серий из 8) NewStudio скачать через торрент бесплатно
  • Доминион / Dominion (2015) WEB-DLRip (сезон 2, серии 1 из 13) NewStudio (обновляемая) скачать через торрент бесплатно
  • Доминион / Dominion (2015) WEB-DLRip (сезон 2, серии 1 из 13) LostFilm (обновляемая) скачать через торрент бесплатно
  • Доминион / Dominion (2015) WEB-DL [H.264 / 1080p-LQ] (сезон 2, серия 1 из 13) NewStudio (обновляемая) скачать через торрент бесплатно
  • Доминион / Dominion (2015) WEB-DLRip [H.264] (Сезон 2, серия 1 из 13) LostFilm [MP4|1280x720] скачать через торрент бесплатно
  • Доминион / Dominion (2015) WEB-DLRip [H.264] (Сезон 2, серия 1 из 13) BaibaKo [MP4|720x400] скачать через торрент бесплатно
  • Доминион / Dominion (2015) WEB-DL [H.264 / 720p-LQ] (сезон 2, серия 1 из 13) (NewStudio) (обновляемая) скачать через торрент бесплатно
  • Доминион / Dominion (2015) WEB-DL [H.264 / 720p-LQ] (сезон 2, серия 1 из 13) (LostFilm) (обновляемая) скачать через торрент бесплатно


    • Комментарии (0):

      Информация

      Информация

        Посетители, находящиеся в группе Гости, не могут оставлять комментарии в данной новости.

        ↓ Меню




        ↓ Опрос

        Вы добавили сайт в закладки?
        Да
        Нет


        Top 10 за месяц (КПК и мобильные)