.
Авторизация | Регистрация
Хочешь лучшие торренты? Добавь свой email!
Добавить

Торрент скачать бесплатно

» » Слепое пятно / Слепая зона / Blindspot (2015) HDTVRip [H.264] (Сезон 1, серия 1 из ) NewStudio [MP4|720x400] скачать через торрент бесплатно




    Слепое пятно / Слепая зона / Blindspot (2015) HDTVRip [H.264] (Сезон 1, серия 1 из ) NewStudio [MP4|720x400] скачать через торрент бесплатно

    Опубликовал: Админ | Дата: 17-08-2015, 04:00 | Просмотров: 395

    Производство: США
    Жанр: драма, детектив
    Режиссер: Марк Пеллингтон
    Актеры: Джейми Александер, Салливан Степлтон, Одри Эспарза, Роб Браун, Марианн Жан-Батист, Аквели Роач и др.

    Описание

    В центре сюжета находится потерявшая память девушка, которая оказывается в центре расследования после того, как смогла выбраться из брезентового мешка в самом центе Нью-Йорк Сити на Таймс Сквер. Не имея ни малейшего представления о том, кто она такая, девушка не знает, что обозначают многочисленные загадочные татуировки, которыми покрыто все ее тело. Когда выясняется, что татуировки являются чем-то вроде дорожной карты, к делу подключается ФБР.

    Продолжительность: ~ 00: 43: 00 серия
    Качество видео: HDTVRip
    Перевод: Многоголосый закадровый, профессиональный -NewStudio
    Видео: AVC/H.264, 720x400 (16: 9), ~1500 Кбит/сек
    Аудио #1: AAC, 2 канала, 128 Кбит/сек - русский (многоголосый закадровый)
    Аудио #2: AAC, 2 канала, 128 Кбит/сек - английский (оригинальный)
    Код:

    Полное имя : K:Blindspot_s1_HDTVRip_x264_NewStudio_[NNM-CLUB]Blindspot.s01e01.HDTVRip.x264.NewStudio.TV.mp4
    Формат : MPEG-4
    Профиль формата : Base Media
    Идентификатор кодека : isom
    Размер файла : 546 Мбайт
    Продолжительность : 43 м.
    Общий поток : 1763 Кбит/сек
    Программа кодирования : XviD4PSP 7.0.129
    Видео
    Идентификатор : 1
    Формат : AVC
    Формат/Информация : Advanced Video Codec
    Профиль формата :Main@L3.0
    Параметр CABAC формата : Нет
    Параметр ReFrames формата : 3 кадра
    Идентификатор кодека : avc1
    Идентификатор кодека/Информация : Advanced Video Coding
    Продолжительность : 43 м.
    Битрейт : 1500 Кбит/сек
    Ширина : 720 пикселей
    Высота : 400 пикселей
    Соотношение сторон : 16:9
    Режим частоты кадров : Постоянный
    Частота кадров : 23, 976 кадра/сек
    Цветовое пространство : YUV
    Субдискретизация насыщенности : 4:2:0
    Битовая глубина : 8 бит
    Тип развёртки : Прогрессивная
    Бит/(Пиксели*Кадры) : 0.217
    Размер потока : 464 Мбайт (85%)
    Библиотека кодирования : x264 core 146 r2538M 121396c
    Настройки программы : cabac=0/ref=3/deblock=1:0:0/analyse=0x1:0x131/me=hex/subme=7/psy=1/psy_rd=1, 00:0, 20/mixed_ref=1/me_range=16/chroma_me=1/trellis=1/8x8dct=0/cqm=0/deadzone=21, 11/fast_pskip=1/chroma_qp_offset=-3/threads=20/lookahead_threads=3/sliced_threads=0/nr=0/decimate=1/interlaced=0/bluray_compat=0/constrained_intra=0/bframes=0/weightp=2/keyint=230/keyint_min=23/scenecut=0/intra_refresh=0/rc_lookahead=230/rc=2pass/mbtree=1/bitrate=1500/ratetol=1, 0/qcomp=0, 60/qpmin=10/qpmax=51/qpstep=4/cplxblur=20, 0/qblur=0, 5/ip_ratio=1, 40/aq=1:1, 00
    Основные цвета : BT.709
    Характеристики трансфера : BT.709
    Коэффициенты матрицы : BT.709
    Аудио #1
    Идентификатор : 2
    Формат : AAC
    Формат/Информация : Advanced Audio Codec
    Профиль формата : LC
    Идентификатор кодека : 40
    Продолжительность : 43 м.
    Вид битрейта : Постоянный
    Битрейт : 128 Кбит/сек
    Каналы : 2 канала
    Расположение каналов : Front: L R
    Частота : 48, 0 КГц
    Метод сжатия : С потерями
    Размер потока : 39, 6 Мбайт (7%)
    Язык : Russian
    Аудио #2
    Идентификатор : 3
    Формат : AAC
    Формат/Информация : Advanced Audio Codec
    Профиль формата : LC
    Идентификатор кодека : 40
    Продолжительность : 43 м.
    Вид битрейта : Постоянный
    Битрейт : 128 Кбит/сек
    Каналы : 2 канала
    Расположение каналов : Front: L R
    Частота : 48, 0 КГц
    Метод сжатия : С потерями
    Размер потока : 39, 6 Мбайт (7%)


    Скриншоты для ознакомления




    Слепое пятно/Слепая зона/Blindspot (2015) HDTVRip [H.264] (Сезон 1, серия 1 из ) NewStudio [MP4|720x400]
    загрузка...
    Рейтинг →
     (голосов: 1, оценка 4/5, голосовать можно 1 раз )

    Другие торренты по теме:

  • Слепое пятно / Слепая зона / Blindspot (2015) HDTV [H.264 / 720p-LQ] (сезон 1, серия 1 из ) (NewStudio) (обновляемая) скачать через торрент бесплатно
  • Слепое пятно / Слепая зона / Blindspot (2015) HDTVRip (сезон 1, серии 1 из ) NewStudio (обновляемая) скачать через торрент бесплатно
  • Слепое пятно / Слепая зона / Blindspot (2015) HDTV [H.264 / 1080p] (сезон 1, серия 1 из ) NewStudio (обновляемая) скачать через торрент бесплатно
  • Слепое пятно / Слепая зона / Blindspot (2015) HDTVRip (сезон 1, серии 1 из ) AlexFilm (обновляемая) скачать через торрент бесплатно
  • Слепое пятно / Blindspot (2015) HDTVRip [H.264] (Сезон 1, серия 1 из 8()) AlexFilm [MP4|720x400] скачать через торрент бесплатно
  • Слепое пятно / Слепая зона / Blindspot (2015) WEB-DLRip (сезон 1, серии 1-2 из ) LostFilm (обновляемая) скачать через торрент бесплатно
  • Слепое пятно / Blindspot (2015) WEB-DLRip [H.264] (Сезон 1, серии 1-4 из 22) LostFilm [MP4|1280x718] скачать через торрент бесплатно
  • Слепое пятно / Blindspot 1 сезон (2015)


    • Комментарии (0):

      Информация

      Информация

        Посетители, находящиеся в группе Гости, не могут оставлять комментарии в данной новости.

        ↓ Меню




        ↓ Опрос

        Вы добавили сайт в закладки?
        Да
        Нет


        Top 10 за месяц (КПК и мобильные)