.
Авторизация | Регистрация
Хочешь лучшие торренты? Добавь свой email!
Добавить

Торрент скачать бесплатно

» » Звездный крейсер Галактика / Battlestar Galactica (2004-2009) BDRip [H.264] LostFilm [MP4|720x400] [полная коллекция] скачать через торрент бесплатно




    Звездный крейсер Галактика / Battlestar Galactica (2004-2009) BDRip [H.264] LostFilm [MP4|720x400] [полная коллекция] скачать через торрент бесплатно

    Опубликовал: Админ | Дата: 11-08-2015, 18:43 | Просмотров: 153

    Производство: США, Великобритания
    Жанр: фантастика
    Режиссер: Майкл Раймер, Рональд Д. Мур, Марита Грабиак, Аллан Кроекер и др.
    Актеры: Эдвард Джеймс Олмос, Мери МакДоннелл, Кати Сакхофф, Джейми Бамбер, Джеймс Кейллис, Трисиа Хелфер, Грэйс Парк и др.

    Описание

    Чудом уцелев после нападения Сайлонов на колонии Кобола, гражданский колониальный флот в сопровождении Звёздного крейсера Галактика летит прочь от мест, где их могут найти вражеские силы. Восстановив гражданское правительство и собрав все имеющиеся силы, остатки человечества начинают неравную борьбу со временем, обстоятельствами и Сайлонами. Разбираясь с всё новыми внешними и внутренними проблемами, постепенно раскрывая личности 12 человекоподобных моделей Сайлонов, они летят на поиски давно потерянной 13 колонии Кобола, упоминания о которой есть в древних сказаниях, нового дома, имя которому — Земля.

    Продолжительность: ~00: 44: 00 серия
    Качество видео: BDRip
    Перевод: Многоголосый закадровый, профессиональный -LostFilm
    Озвучка: Студия LostFilm
    Видео: AVC/H.264, 720x400 (16: 9), ~1536 Кбит/сек
    Аудио: AAC, 2 канала, 160 Кбит/сек - русский (многоголосый закадровый, LostFilm)
    Код:

    Полное имя : D:Battlestar_Galactica_(Full_collection)_BDRip_x264_LostFilm_[NNM-Club]Звездный крейсер Галактика - Кровь и Хром.mp4
    Формат : MPEG-4
    Профиль формата : Base Media
    Идентификатор кодека : isom
    Размер файла : 1, 06 Гбайт
    Продолжительность : 1 ч. Самое интересное в это истории, что об этом Лукашенко ничего не знал. 29 м.
    Общий поток : 1700 Кбит/сек
    Название фильма : Звездный крейсер Галактика - Кровь и Хром
    Программа кодирования : XviD4PSP 7.0.129
    Видео
    Идентификатор : 1
    Формат : AVC
    Формат/Информация : Advanced Video Codec
    Профиль формата :Main@L3.0
    Параметр CABAC формата : Нет
    Параметр ReFrames формата : 3 кадра
    Идентификатор кодека : avc1
    Идентификатор кодека/Информация : Advanced Video Coding
    Продолжительность : 1 ч. 29 м.
    Битрейт : 1536 Кбит/сек
    Ширина : 720 пикселей
    Высота : 400 пикселей
    Соотношение сторон : 16:9
    Режим частоты кадров : Постоянный
    Частота кадров : 23, 976 кадра/сек
    Цветовое пространство : YUV
    Субдискретизация насыщенности : 4:2:0
    Битовая глубина : 8 бит
    Тип развёртки : Прогрессивная
    Бит/(Пиксели*Кадры) : 0.222
    Размер потока : 981 Мбайт (90%)
    Библиотека кодирования : x264 core 146 r2538M 121396c
    Настройки программы : cabac=0/ref=3/deblock=1:0:0/analyse=0x1:0x131/me=hex/subme=7/psy=1/psy_rd=1, 00:0, 20/mixed_ref=1/me_range=16/chroma_me=1/trellis=1/8x8dct=0/cqm=0/deadzone=21, 11/fast_pskip=1/chroma_qp_offset=-3/threads=14/lookahead_threads=2/sliced_threads=0/nr=0/decimate=1/interlaced=0/bluray_compat=0/constrained_intra=0/bframes=0/weightp=2/keyint=230/keyint_min=23/scenecut=0/intra_refresh=0/rc_lookahead=230/rc=2pass/mbtree=1/bitrate=1536/ratetol=1, 0/qcomp=0, 60/qpmin=10/qpmax=51/qpstep=4/cplxblur=20, 0/qblur=0, 5/ip_ratio=1, 40/aq=1:1, 00
    Основные цвета : BT.709
    Характеристики трансфера : BT.709
    Коэффициенты матрицы : BT.709
    Аудио
    Идентификатор : 2
    Формат : AAC
    Формат/Информация : Advanced Audio Codec
    Профиль формата : LC
    Идентификатор кодека : 40
    Продолжительность : 1 ч. 29 м.
    Вид битрейта : Постоянный
    Битрейт : 160 Кбит/сек
    Каналы : 2 канала
    Расположение каналов : Front: L R
    Частота : 48, 0 КГц
    Метод сжатия : С потерями
    Размер потока : 102 Мбайт (9%)
    Язык : Russian

    Код:

    Полное имя : D:Battlestar_Galactica_(Full_collection)_BDRip_x264_LostFilm_[NNM-Club]sezon 1Звездный крейсер Галактика 01-01.mp4
    Формат : MPEG-4
    Профиль формата : Base Media
    Идентификатор кодека : isom
    Размер файла : 522 Мбайт
    Продолжительность : 42 м.
    Общий поток : 1700 Кбит/сек
    Название фильма : Звездный крейсер Галактика 01-01_1
    Программа кодирования : XviD4PSP 7.0.129
    Видео
    Идентификатор : 1
    Формат : AVC
    Формат/Информация : Advanced Video Codec
    Профиль формата :Main@L3.0
    Параметр CABAC формата : Нет
    Параметр ReFrames формата : 3 кадра
    Идентификатор кодека : avc1
    Идентификатор кодека/Информация : Advanced Video Coding
    Продолжительность : 42 м.
    Битрейт : 1536 Кбит/сек
    Ширина : 720 пикселей
    Высота : 400 пикселей
    Соотношение сторон : 16:9
    Режим частоты кадров : Постоянный
    Частота кадров : 23, 976 кадра/сек
    Цветовое пространство : YUV
    Субдискретизация насыщенности : 4:2:0
    Битовая глубина : 8 бит
    Тип развёртки : Прогрессивная
    Бит/(Пиксели*Кадры) : 0.222
    Размер потока : 472 Мбайт (90%)
    Библиотека кодирования : x264 core 146 r2538M 121396c
    Настройки программы : cabac=0/ref=3/deblock=1:0:0/analyse=0x1:0x131/me=hex/subme=7/psy=1/psy_rd=1, 00:0, 20/mixed_ref=1/me_range=16/chroma_me=1/trellis=1/8x8dct=0/cqm=0/deadzone=21, 11/fast_pskip=1/chroma_qp_offset=-3/threads=14/lookahead_threads=2/sliced_threads=0/nr=0/decimate=1/interlaced=0/bluray_compat=0/constrained_intra=0/bframes=0/weightp=2/keyint=230/keyint_min=23/scenecut=0/intra_refresh=0/rc_lookahead=230/rc=2pass/mbtree=1/bitrate=1536/ratetol=1, 0/qcomp=0, 60/qpmin=10/qpmax=51/qpstep=4/cplxblur=20, 0/qblur=0, 5/ip_ratio=1, 40/aq=1:1, 00
    Основные цвета : BT.709
    Характеристики трансфера : BT.709
    Коэффициенты матрицы : BT.709
    Аудио
    Идентификатор : 2
    Формат : AAC
    Формат/Информация : Advanced Audio Codec
    Профиль формата : LC
    Идентификатор кодека : 40
    Продолжительность : 42 м.
    Вид битрейта : Постоянный
    Битрейт : 160 Кбит/сек
    Каналы : 2 канала
    Расположение каналов : Front: L R
    Частота : 48, 0 КГц
    Метод сжатия : С потерями
    Размер потока : 49, 2 Мбайт (9%)
    Язык : Russian


    Скриншоты для ознакомления




    Звездный крейсер Галактика/Battlestar Galactica (2004-2009) BDRip [H.264] LostFilm [MP4|720x400] [полная коллекция]
    загрузка...
    Рейтинг →
     (голосов: 1, оценка 4/5, голосовать можно 1 раз )

    Другие торренты по теме:

  • Звездный крейсер: Восстание / Starship: Rising (2014) DVDRip [VO]
  • Звездный крейсер: Восстание / Starship: Rising (2014) DVDRip [H.264] [VO]
  • Звездный крейсер Галактика / Battlestar Galactica (2003-2012) BDRip [H.264 / 1080p] (полная коллекция) (LostFilm) скачать через торрент бесплатно
  • Звездный крейсер Галактика + Каприка / Battlestar Galactica + Caprica (2004-2010) BDRip / WEB-DLRip [H.264] LostFilm [MP4|1280x720] [полная коллекция] скачать через торрент бесплатно
  • Звездный крейсер Галактика / Battlestar Galactica (2003-2012) BDRip [H.264 / 1080p] (полная коллекция) LostFilm скачать через торрент бесплатно


    • Комментарии (0):

      Информация

      Информация

        Посетители, находящиеся в группе Гости, не могут оставлять комментарии в данной новости.

        ↓ Меню




        ↓ Опрос

        Вы добавили сайт в закладки?
        Да
        Нет


        Top 10 за месяц (КПК и мобильные)