.
Авторизация | Регистрация
Хочешь лучшие торренты? Добавь свой email!
Добавить

Торрент скачать бесплатно

» » Ночной беглец / Run All Night (2015) [H.264] [MP4|960x400] скачать через торрент бесплатно




    Ночной беглец / Run All Night (2015) [H.264] [MP4|960x400] скачать через торрент бесплатно

    Опубликовал: Админ | Дата: 15-07-2015, 06:28 | Просмотров: 166

    Производство: США, Blumhouse Productions, Chapter One Films, Lionsgate
    Жанр: Боевик, Криминал, Драма

    Описание

    Фильм расскажет историю киллера, вступившего в конфликт с бывшим боссом и в итоге вынужденного пуститься в бега, чтобы защитить свою семью от преследования мафией и властями...
    Режиссер: Хауме Кольет-Серра
    Продюсер: Рой Ли, Майкл Тадросс, Бруклин Уивер
    Актеры: Лиам Нисон, Юэль Киннаман, Дженезис Родригез, Бойд Холбрук, Винсент Д’Онофрио, Коммон, Эд Харрис, Холт МакКэллани, Брюс МакГилл, Бо Напп
    Продолжительность: 01: 54: 21
    Качество видео: BDRip
    Перевод: Дублированный (Лицензия BD CEE ), Оригинальный (Английский )

    Дата мировой премьеры: 9 марта 2015
    Дата российской премьеры: 16 апреля 2015
    Дата выхода DVD/Blu-ray релиза: 20 августа 2015
    Видео: AVC/H.264, 960x400, ~1605 Kbps
    Аудио 1: AAC LC, 2.0, 144 Kbps - Русский (DUB BD CEE )
    Аудио 2: AAC LC, 2.0, 144 Kbps - Английский (Оригинальный )
    Код:
    General
    Complete name : D:KrekerНочной беглец.2015.BDRip.NNM-Club.mp4
    Format : MPEG-4
    Format profile : Base Media
    Codec ID : isom
    File size : 1.52 GiB
    Duration : 1h 54mn
    Overall bit rate mode : Variable
    Overall bit rate : 1 898 Kbps
    Encoded date : UTC 2015-07-14 17:37:38
    Tagged date : UTC 2015-07-14 17:37:38
    Video
    ID : 1
    Format : AVC
    Format/Info : Advanced Video Codec
    Format profile :High@L4.1
    Format settings, CABAC : Yes
    Format settings, ReFrames : 10 frames
    Codec ID : avc1
    Codec ID/Info : Advanced Video Coding
    Duration : 1h 54mn
    Bit rate : 1 605 Kbps
    Maximum bit rate : 8 250 Kbps
    Width : 960 pixels
    Height : 400 pixels
    Display aspect ratio : 2.40:1
    Frame rate mode : Constant
    Frame rate : 23.976 fps
    Color space : YUV
    Chroma subsampling : 4:2:0
    Bit depth : 8 bits
    Scan type : Progressive
    Bits/(Pixel*Frame) : 0.174
    Stream size : 1.28 GiB (85%)
    Title : Run All Night
    Writing library : x264 core 146 r2538 121396c
    Encoding settings : cabac=1/ref=10/deblock=1:-1:-1/analyse=0x3:0x133/me=umh/subme=11/psy=1/psy_rd=1.00:0.00/mixed_ref=1/me_range=64/chroma_me=1/trellis=2/8x8dct=1/cqm=0/deadzone=21, 11/fast_pskip=0/chroma_qp_offset=-2/threads=3/lookahead_threads=1/sliced_threads=0/nr=0/decimate=1/interlaced=0/bluray_compat=0/constrained_intra=0/bframes=12/b_pyramid=2/b_adapt=2/b_bias=0/direct=3/weightb=1/open_gop=0/weightp=2/keyint=240/keyint_min=23/scenecut=40/intra_refresh=0/rc_lookahead=40/rc=crf/mbtree=0/crf=19.0/qcomp=0.60/qpmin=0/qpmax=69/qpstep=4/vbv_maxrate=20000/vbv_bufsize=25000/crf_max=0.0/nal_hrd=none/filler=0/ip_ratio=1.40/pb_ratio=1.30/aq=1:1.00
    Encoded date : UTC 2015-07-14 17:37:38
    Tagged date : UTC 2015-07-14 17:38:53
    Audio #1
    ID : 2
    Format : AAC
    Format/Info : Advanced Audio Codec
    Format profile : LC
    Codec ID : 40
    Duration : 1h 54mn
    Source duration : 1h 54mn
    Bit rate mode : Variable
    Bit rate : 144 Kbps
    Maximum bit rate : 183 Kbps
    Channel(s) : 2 channels
    Channel positions : Front: L R
    Sampling rate : 48.0 KHz
    Compression mode : Lossy
    Stream size : 118 MiB (8%)
    Source stream size : 118 MiB (8%)
    Title : DUB BD CEE
    Language : Russian
    Encoded date : UTC 2015-07-14 17:38:13
    Tagged date : UTC 2015-07-14 17:38:53
    Audio #2
    ID : 3
    Format : AAC
    Format/Info : Advanced Audio Codec
    Format profile : LC
    Codec ID : 40
    Duration : 1h 54mn
    Source duration : 1h 54mn
    Bit rate mode : Variable
    Bit rate : 144 Kbps
    Maximum bit rate : 186 Kbps
    Channel(s) : 2 channels
    Channel positions : Front: L R
    Sampling rate : 48.0 KHz
    Compression mode : Lossy
    Stream size : 117 MiB (8%)
    Source stream size : 117 MiB (8%)
    Title : Original
    Language : English
    Encoded date : UTC 2015-07-14 17:38:33
    Tagged date : UTC 2015-07-14 17:38:53
    Код:
    x264 [info]: profile High, level 4.1
    x264 [info]: frame I:2030 Avg QP:16.53 size: 40616
    x264 [info]: frame P:35789 Avg QP:18.20 size: 16791
    x264 [info]: frame B:126694 Avg QP:21.53 size: 5471
    x264 [info]: consecutive B-frames: 2.9% 2.8% 7.4% 23.3% 17.8% 28.3% 6.2% 4.2% 2.0% 2.8% 0.9% 0.9% 0.5%
    x264 [info]: mb I I16..4: 7.6% 70.4% 22.0%
    x264 [info]: mb P I16..4: 0.8% 9.9% 1.6% P16..4: 30.8% 38.8% 12.6% 2.2% 0.1% skip: 3.2%
    x264 [info]: mb B I16..4: 0.1% 0.9% 0.1% B16..8: 39.9% 18.7% 2.7% direct: 3.7% skip:34.0% L0:43.0% L1:49.9% BI: 7.2%
    x264 [info]: 8x8 transform intra:78.4% inter:61.3%
    x264 [info]: direct mvs spatial:100.0% temporal:0.0%
    x264 [info]: coded y, uvDC, uvAC intra: 87.6% 80.6% 57.9% inter: 19.4% 13.0% 1.9%
    x264 [info]: i16 v, h, dc, p: 31% 18% 6% 45%
    x264 [info]: i8 v, h, dc, ddl, ddr, vr, hd, vl, hu: 8% 6% 7% 11% 15% 14% 14% 12% 13%
    x264 [info]: i4 v, h, dc, ddl, ddr, vr, hd, vl, hu: 9% 7% 5% 11% 15% 13% 14% 11% 14%
    x264 [info]: i8c dc, h, v, p: 35% 27% 20% 18%
    x264 [info]: Weighted P-Frames: Y:8.5% UV:5.8%
    x264 [info]: ref P L0: 50.0% 7.9% 17.4% 7.1% 5.2% 3.9% 3.2% 1.8% 1.6% 1.5% 0.4% 0.0%
    x264 [info]: ref B L0: 73.7% 12.0% 5.9% 2.9% 2.0% 1.6% 1.2% 0.5% 0.2%
    x264 [info]: ref B L1: 91.9% 8.1%
    x264 [info]: kb/s:1604.82


    Скриншоты для ознакомления




    Ночной беглец/Run All Night (2015) [H.264] [MP4|960x400]
    загрузка...
    Рейтинг →
     (голосов: 1, оценка 3/5, голосовать можно 1 раз )

    Другие торренты по теме:

  • Ночной беглец / Run All Night (2015) CamRip скачать через торрент бесплатно
  • Ночной беглец / Run All Night (2015) CamRip скачать через торрент бесплатно
  • Ночной беглец / Run All Night (2015) CamRip [H.264] [EN] скачать через торрент бесплатно
  • Ночной беглец / Run All Night (2015) WEBRip [H.264 / 720p-LQ] [Звук с TS] скачать через торрент бесплатно
  • Ночной беглец / Run All Night (2015) WEBRip [Звук с TS] скачать через торрент бесплатно
  • Ночной беглец / Run All Night (2015) WEBRip [Звук с TS] скачать через торрент бесплатно
  • Ночной беглец / Run All Night (2015) WEBRip [H.264 / 720p-LQ] [Line] скачать через торрент бесплатно
  • Ночной беглец / Run All Night (2015) WEBRip [Line] скачать через торрент бесплатно


    • Комментарии (0):

      Информация

      Информация

        Посетители, находящиеся в группе Гости, не могут оставлять комментарии в данной новости.

        ↓ Меню




        ↓ Опрос

        Вы добавили сайт в закладки?
        Да
        Нет


        Top 10 за месяц (КПК и мобильные)