.
Авторизация | Регистрация
Хочешь лучшие торренты? Добавь свой email!
Добавить

Торрент скачать бесплатно

» » Фокус / Focus (2015) BDRip [H.264] [MP4|1024x576] скачать через торрент бесплатно




    Фокус / Focus (2015) BDRip [H.264] [MP4|1024x576] скачать через торрент бесплатно

    Опубликовал: Админ | Дата: 28-06-2015, 04:00 | Просмотров: 137

    Производство: США, Аргентина, Kramer Sigman Films, Zaftig Films
    Жанр: Драма, Мелодрама, Комедия, Криминал

    Описание

    История об опытном мошеннике, который влюбляется в девушку, делающую первые шаги на поприще нелегального отъема средств у граждан. Отношения становятся для них проблемой, когда обнаруживается, что романтика мешает их нечестному бизнесу.
    Режиссер: Гленн Фикарра, Джон Рекуа
    Продюсер: Дениз Ди Нови, Чарли Гоголак, Стэн Влодковски
    Актеры: Уилл Смит, Марго Робби, Родриго Санторо, Джералд МакРэйни, Б.Д. Вонг, Роберт Тейлор, Бреннан Браун, Адриан Мартинес, Лаура Флэннери, Стефани Онор
    Продолжительность: 01: 44: 44
    Перевод: Дублированный (Лицензия CEE ), Оригинальный (Английский )

    Дата мировой премьеры: 25 февраля 2015
    Дата российской премьеры: 26 февраля 2015
    Дата выхода DVD/Blu-ray релиза: 25 июня 2015
    Формат: MP4
    Качество видео: BDRip 576p
    Видеокодек: AVC/H.264
    Битрейт видео: ~2000 Kbps
    Размер кадра: 1024x576
    Аудио 1: AAC LC, 2.0, 164 Kbps - Русский (DUB BD CEE )
    Аудио 2: AAC LC, 2.0, 164 Kbps - Английский (Оригинальный )
    Код:
    General
    Complete name : D:KrekerФокус.2015.BDRip.576p.NNM-Club.mp4
    Format : MPEG-4
    Format profile : Base Media
    Codec ID : isom
    File size : 1.71 GiB
    Duration : 1h 44mn
    Overall bit rate mode : Variable
    Overall bit rate : 2 332 Kbps
    Encoded date : UTC 2015-06-27 05:11:33
    Tagged date : UTC 2015-06-27 05:11:33
    Video
    ID : 1
    Format : AVC
    Format/Info : Advanced Video Codec
    Format profile :High@L4.1
    Format settings, CABAC : Yes
    Format settings, ReFrames : 7 frames
    Codec ID : avc1
    Codec ID/Info : Advanced Video Coding
    Duration : 1h 44mn
    Bit rate : 2 000 Kbps
    Maximum bit rate : 9 267 Kbps
    Width : 1 024 pixels
    Height : 576 pixels
    Display aspect ratio : 16:9
    Frame rate mode : Constant
    Frame rate : 23.976 fps
    Color space : YUV
    Chroma subsampling : 4:2:0
    Bit depth : 8 bits
    Scan type : Progressive
    Bits/(Pixel*Frame) : 0.141
    Stream size : 1.46 GiB (86%)
    Title : Fokus
    Writing library : x264 core 146 r2538 121396c
    Encoding settings : cabac=1/ref=7/deblock=1:-1:-1/analyse=0x3:0x133/me=umh/subme=11/psy=1/psy_rd=1.05:0.05/mixed_ref=1/me_range=64/chroma_me=1/trellis=2/8x8dct=1/cqm=0/deadzone=21, 11/fast_pskip=0/chroma_qp_offset=-3/threads=3/lookahead_threads=1/sliced_threads=0/nr=0/decimate=1/interlaced=0/bluray_compat=0/constrained_intra=0/bframes=15/b_pyramid=2/b_adapt=2/b_bias=0/direct=3/weightb=1/open_gop=0/weightp=2/keyint=240/keyint_min=23/scenecut=40/intra_refresh=0/rc_lookahead=40/rc=2pass/mbtree=0/bitrate=2000/ratetol=1.0/qcomp=0.70/qpmin=0/qpmax=69/qpstep=4/cplxblur=20.0/qblur=0.5/vbv_maxrate=20000/vbv_bufsize=25000/nal_hrd=none/filler=0/ip_ratio=1.40/pb_ratio=1.30/aq=1:1.00
    Encoded date : UTC 2015-06-27 05:11:33
    Tagged date : UTC 2015-06-27 05:12:57
    Audio #1
    ID : 2
    Format : AAC
    Format/Info : Advanced Audio Codec
    Format profile : LC
    Codec ID : 40
    Duration : 1h 44mn
    Source duration : 1h 44mn
    Bit rate mode : Variable
    Bit rate : 164 Kbps
    Maximum bit rate : 199 Kbps
    Channel(s) : 2 channels
    Channel positions : Front: L R
    Sampling rate : 48.0 KHz
    Compression mode : Lossy
    Stream size : 123 MiB (7%)
    Source stream size : 123 MiB (7%)
    Title : DUB BD CEE
    Language : Russian
    Encoded date : UTC 2015-06-27 05:12:30
    Tagged date : UTC 2015-06-27 05:12:57
    Audio #2
    ID : 3
    Format : AAC
    Format/Info : Advanced Audio Codec
    Format profile : LC
    Codec ID : 40
    Duration : 1h 44mn
    Source duration : 1h 44mn
    Bit rate mode : Variable
    Bit rate : 164 Kbps
    Maximum bit rate : 208 Kbps
    Channel(s) : 2 channels
    Channel positions : Front: L R
    Sampling rate : 48.0 KHz
    Compression mode : Lossy
    Stream size : 123 MiB (7%)
    Source stream size : 123 MiB (7%)
    Title : Original
    Language : English
    Encoded date : UTC 2015-06-27 05:12:44
    Tagged date : UTC 2015-06-27 05:12:57
    Код:
    x264 [info]: profile High, level 4.1
    x264 [info]: frame I:1398 Avg QP:16.38 size: 82776
    x264 [info]: frame P:32405 Avg QP:19.33 size: 22520
    x264 [info]: frame B:116866 Avg QP:21.78 size: 6203
    x264 [info]: consecutive B-frames: 1.6% 1.8% 5.5% 34.6% 16.3% 26.8% 5.2% 5.8% 0.7% 0.1% 0.2% 0.5% 0.1% 0.5% 0.0% 0.2%
    x264 [info]: mb I I16..4: 7.2% 74.4% 18.4%
    x264 [info]: mb P I16..4: 0.8% 6.4% 1.2% P16..4: 32.9% 38.1% 12.1% 1.8% 0.2% skip: 6.5%
    x264 [info]: mb B I16..4: 0.1% 0.4% 0.1% B16..8: 37.0% 18.1% 2.4% direct: 3.5% skip:38.4% L0:42.4% L1:48.7% BI: 8.9%
    x264 [info]: 8x8 transform intra:75.4% inter:66.0%
    x264 [info]: direct mvs spatial:98.7% temporal:1.3%
    x264 [info]: coded y, uvDC, uvAC intra: 84.6% 91.8% 79.5% inter: 14.2% 21.1% 9.3%
    x264 [info]: i16 v, h, dc, p: 25% 15% 4% 56%
    x264 [info]: i8 v, h, dc, ddl, ddr, vr, hd, vl, hu: 9% 7% 5% 10% 15% 15% 14% 13% 12%
    x264 [info]: i4 v, h, dc, ddl, ddr, vr, hd, vl, hu: 12% 9% 4% 9% 15% 15% 13% 11% 12%
    x264 [info]: i8c dc, h, v, p: 43% 18% 18% 21%
    x264 [info]: Weighted P-Frames: Y:2.0% UV:1.4%
    x264 [info]: ref P L0: 54.3% 7.5% 16.3% 7.7% 5.9% 4.5% 3.5% 0.2% 0.0%
    x264 [info]: ref B L0: 77.2% 12.9% 5.5% 2.7% 1.2% 0.5%
    x264 [info]: ref B L1: 93.1% 6.9%
    x264 [info]: kb/s:1999.18


    Скриншоты для ознакомления




    Фокус/Focus (2015) BDRip [H.264] [MP4|1024x576]
    загрузка...
    Рейтинг →
     (голосов: 1, оценка 5/5, голосовать можно 1 раз )

    Другие торренты по теме:

  • Фокус / Focus (2015) WEBRip [1080p] [Трейлер] скачать через торрент бесплатно
  • Фокус Покус / Hocus Pocus (1993) BDRemux [1080p] скачать через торрент бесплатно
  • Фокус / Focus (2015) WEBRip [H.264 / 720p-LQ] ATV скачать через торрент бесплатно
  • Фокус / Focus (2015) WEB-DLRip [Line] скачать через торрент бесплатно
  • Фокус / Focus (2015) WEB-DL [H.264 / 720p-LQ] [Line] скачать через торрент бесплатно
  • Фокус / Focus (2015) WEB-DL [H.264 / 1080p-LQ] [Line] скачать через торрент бесплатно
  • Фокус / Focus (2015) WEB-DL [720p] ATV [Line] скачать через торрент бесплатно
  • Фокус / Focus (2015) WEB-DL [1080p] ATV [Line] скачать через торрент бесплатно


    • Комментарии (0):

      Информация

      Информация

        Посетители, находящиеся в группе Гости, не могут оставлять комментарии в данной новости.

        ↓ Меню




        ↓ Опрос

        Вы добавили сайт в закладки?
        Да
        Нет


        Top 10 за месяц (КПК и мобильные)