.
Авторизация | Регистрация
Хочешь лучшие торренты? Добавь свой email!
Добавить

Торрент скачать бесплатно

» » Оно / It Follows (2014) BDRip [H.264] [MP4|960x400] скачать через торрент бесплатно




    Оно / It Follows (2014) BDRip [H.264] [MP4|960x400] скачать через торрент бесплатно

    Опубликовал: Админ | Дата: 14-06-2015, 04:01 | Просмотров: 398

    Производство: США/Northern Lights Films, Animal Kingdom, Two Flints
    Жанр: Ужасы, Детектив

    Описание

    После сексуальной связи 19-летнюю девушку по имени Джей начинают мучить странные видения и непреодолимое чувство того, что кто-то или что-то за ней следит. Она рассказывает об этом своим друзьям, которые пытаются помочь девушке, но никто из них даже не догадывается, чем это может закончиться...
    Режиссер: Дэвид Роберт Митчелл
    Продюсер: Ребекка Грин, Дэвид Каплан, Эрик Роммесмо
    Актеры: Кейр Гилкрист, Carollette Phillips, Лорен Басс, Оливия Луккарди, Лили Сепе, Майка Монро, Джейк Вири, Дэниэл Дзоватто, Чарльз Гертнер, Бэйли Спрай
    Продолжительность: 01: 40: 13
    Перевод: Двуголосый закадровый (Студия Пиратского Дубляжа ), одноголосый закадровый (А.Матвеев )

    Дата мировой премьеры: 17 мая 2014
    Дата российской премьеры: 25 июня 2015
    Формат: MP4
    Качество видео: BDRip
    Видеокодек: AVC/H.264
    Битрейт видео: ~1837 Kbps
    Размер кадра: 960x400
    Аудио 1: AAC LC VBR, 2.0, 144 Kbps - Русский (двуголосый закадровый, Студия Пиратского Дубляжа )
    Аудио 2: AAC LC VBR, 2.0, 144 Kbps - Русский (одноголосый закадровый, А.Матвеев )
    Код:
    General
    Complete name : D:KrekerОно.2014.BDRip.NNM-Club.mp4
    Format : MPEG-4
    Format profile : Base Media
    Codec ID : isom
    File size : 1.49 GiB
    Duration : 1h 40mn
    Overall bit rate mode : Variable
    Overall bit rate : 2 130 Kbps
    Encoded date : UTC 2015-06-13 04:00:24
    Tagged date : UTC 2015-06-13 04:00:24
    Video
    ID : 1
    Format : AVC
    Format/Info : Advanced Video Codec
    Format profile :High@L4.1
    Format settings, CABAC : Yes
    Format settings, ReFrames : 9 frames
    Codec ID : avc1
    Codec ID/Info : Advanced Video Coding
    Duration : 1h 40mn
    Bit rate : 1 837 Kbps
    Maximum bit rate : 7 826 Kbps
    Width : 960 pixels
    Height : 400 pixels
    Display aspect ratio : 2.40:1
    Frame rate mode : Constant
    Frame rate : 23.976 fps
    Color space : YUV
    Chroma subsampling : 4:2:0
    Bit depth : 8 bits
    Scan type : Progressive
    Bits/(Pixel*Frame) : 0.199
    Stream size : 1.29 GiB (86%)
    Title : It Follows
    Writing library : x264 core 146 r2538 121396c
    Encoding settings : cabac=1/ref=9/deblock=1:-2:-2/analyse=0x3:0x133/me=umh/subme=11/psy=1/psy_rd=1.00:0.00/mixed_ref=1/me_range=64/chroma_me=1/trellis=2/8x8dct=1/cqm=0/deadzone=21, 11/fast_pskip=0/chroma_qp_offset=-2/threads=3/lookahead_threads=1/sliced_threads=0/nr=0/decimate=1/interlaced=0/bluray_compat=0/constrained_intra=0/bframes=9/b_pyramid=2/b_adapt=2/b_bias=0/direct=3/weightb=1/open_gop=0/weightp=2/keyint=240/keyint_min=23/scenecut=40/intra_refresh=0/rc_lookahead=50/rc=crf/mbtree=0/crf=17.7/qcomp=0.60/qpmin=0/qpmax=69/qpstep=4/vbv_maxrate=20000/vbv_bufsize=25000/crf_max=0.0/nal_hrd=none/filler=0/ip_ratio=1.40/pb_ratio=1.30/aq=1:1.00
    Encoded date : UTC 2015-06-13 04:00:24
    Tagged date : UTC 2015-06-13 04:01:41
    Color range : Limited
    Color primaries : BT.709
    Transfer characteristics : BT.709
    Matrix coefficients : BT.709
    Audio #1
    ID : 2
    Format : AAC
    Format/Info : Advanced Audio Codec
    Format profile : LC
    Codec ID : 40
    Duration : 1h 40mn
    Source duration : 1h 40mn
    Bit rate mode : Variable
    Bit rate : 144 Kbps
    Maximum bit rate : 194 Kbps
    Channel(s) : 2 channels
    Channel positions : Front: L R
    Sampling rate : 48.0 KHz
    Compression mode : Lossy
    Stream size : 103 MiB (7%)
    Source stream size : 103 MiB (7%)
    Title : Ñòóäèÿ Ïèðàòñêîãî äóáëÿæà
    Language : Russian
    Encoded date : UTC 2015-06-13 04:01:14
    Tagged date : UTC 2015-06-13 04:01:41
    Audio #2
    ID : 3
    Format : AAC
    Format/Info : Advanced Audio Codec
    Format profile : LC
    Codec ID : 40
    Duration : 1h 40mn
    Source duration : 1h 40mn
    Bit rate mode : Variable
    Bit rate : 144 Kbps
    Maximum bit rate : 198 Kbps
    Channel(s) : 2 channels
    Channel positions : Front: L R
    Sampling rate : 48.0 KHz
    Compression mode : Lossy
    Stream size : 103 MiB (7%)
    Source stream size : 103 MiB (7%)
    Title : À. Ìàòâååâà
    Language : Russian
    Encoded date : UTC 2015-06-13 04:01:28
    Tagged date : UTC 2015-06-13 04:01:41
    Код:
    x264 [info]: profile High, level 4.1
    x264 [info]: frame I:999 Avg QP:15.25 size: 64088
    x264 [info]: frame P:27337 Avg QP:17.09 size: 21566
    x264 [info]: frame B:115832 Avg QP:18.78 size: 6276
    x264 [info]: consecutive B-frames: 1.2% 0.8% 4.1% 14.1% 15.8% 47.9% 7.0% 2.2% 3.9% 3.0%
    x264 [info]: mb I I16..4: 7.6% 67.4% 25.0%
    x264 [info]: mb P I16..4: 0.9% 8.1% 1.2% P16..4: 27.6% 31.8% 17.2% 3.7% 0.6% skip: 8.9%
    x264 [info]: mb B I16..4: 0.2% 0.8% 0.1% B16..8: 31.4% 20.3% 4.6% direct: 5.5% skip:37.2% L0:44.8% L1:42.9% BI:12.3%
    x264 [info]: 8x8 transform intra:75.5% inter:50.6%
    x264 [info]: direct mvs spatial:99.9% temporal:0.1%
    x264 [info]: coded y, uvDC, uvAC intra: 83.5% 85.4% 69.5% inter: 23.4% 18.6% 4.0%
    x264 [info]: i16 v, h, dc, p: 51% 11% 11% 27%
    x264 [info]: i8 v, h, dc, ddl, ddr, vr, hd, vl, hu: 8% 9% 14% 9% 12% 11% 12% 11% 14%
    x264 [info]: i4 v, h, dc, ddl, ddr, vr, hd, vl, hu: 11% 10% 17% 7% 11% 10% 11% 9% 13%
    x264 [info]: i8c dc, h, v, p: 44% 26% 16% 13%
    x264 [info]: Weighted P-Frames: Y:5.4% UV:2.9%
    x264 [info]: ref P L0: 43.7% 9.9% 18.3% 7.6% 6.3% 4.6% 4.3% 2.5% 2.6% 0.2% 0.0%
    x264 [info]: ref B L0: 67.6% 13.2% 7.4% 4.3% 3.0% 2.6% 1.4% 0.5%
    x264 [info]: ref B L1: 91.3% 8.7%
    x264 [info]: kb/s:1836.71


    Скриншоты для ознакомления




    Оно/It Follows (2014) BDRip [H.264] [MP4|960x400]
    загрузка...
    Рейтинг →
     (голосов: 1, оценка 4/5, голосовать можно 1 раз )

    Другие торренты по теме:

  • Как оно есть. Молоко (2014.09.04) SATRip скачать через торрент бесплатно
  • Как оно есть. Мясо (2014.09.04) SATRip скачать через торрент бесплатно
  • Как оно есть. Соя (2014.11.15) SATRip скачать через торрент бесплатно
  • Как оно есть. Дары моря. Рыба (2014.10.01) SATRip
  • Как оно есть. Кофе (2014.10.28) SATRip скачать через торрент бесплатно
  • Как оно есть. Хлеб (2014.10.18) SATRip скачать через торрент бесплатно
  • Как оно есть. Соль (2014.11.25) SATRip
  • Как оно есть. Масло (2014.12.03) SATRip


    • Комментарии (0):

      Информация

      Информация

        Посетители, находящиеся в группе Гости, не могут оставлять комментарии в данной новости.

        ↓ Меню




        ↓ Опрос

        Вы добавили сайт в закладки?
        Да
        Нет


        Top 10 за месяц (КПК и мобильные)