.
Авторизация | Регистрация
Хочешь лучшие торренты? Добавь свой email!
Добавить

Торрент скачать бесплатно

» » Снайпер / American Sniper (2014) BDRip [H.264] [MP4|1024x426] скачать через торрент бесплатно




    Снайпер / American Sniper (2014) BDRip [H.264] [MP4|1024x426] скачать через торрент бесплатно

    Опубликовал: Админ | Дата: 25-05-2015, 04:01 | Просмотров: 562

    Производство: США, Warner Bros., Village Roadshow Pictures, Mad Chance Productions
    Жанр: Боевик, Драма, Военный, Биография

    Описание

    Экранизация мемуаров морского котика из Техаса Криса Кайла, который служил снайпером в Ираке и стал рекордсменом по числу убитых солдат противника, за что иракцы прозвали его дьяволом. Кроме самой войны, фильм рассказывает о воспоминаниях жены Криса, которая была свидетелем растущей привязанности мужа к его сослуживцам.
    Режиссер: Клинт Иствуд
    Продюсер: Брэдли Купер, Клинт Иствуд, Эндрю Лазар
    Актеры: Брэдли Купер, Сиенна Миллер, Кайл Галлнер, Коул Конис, Бен Рид, Элиз Робертсон, Люк Саншайн, Трой Винсент, Брэндон Сальгадо, Кейр О’Доннелл
    Продолжительность: 02: 12: 39
    Перевод: Дублированный (Русский, Украинский), Одноголосый закадровый, любительский (Вячеслав Котов), Оригинальный

    Дата мировой премьеры: 11 ноября 2014
    Дата российской премьеры: 5 марта 2015
    Дата выхода DVD/Blu-ray релиза: 28 мая 2015
    Формат: MP4
    Качество видео: BDRip 576p
    Видеокодек: AVC/H.264
    Битрейт видео: ~1328 Kbps
    Размер кадра: 1024x426
    Аудио 1: AAC LC VBR, 2.0, 163 Kbps - Русский (DUB BD CEE)
    Аудио 2: AAC LC VBR, 2.0, 158 Kbps - Русский (Вячеслав Котов)
    Аудио 3: AAC LC VBR, 2.0, 158 Kbps - Украинский (DUB iTunes)
    Аудио 4: AAC LC VBR, 2.0, 157 Kbps - Английский (Оригинальный)
    Код:
    General
    Complete name : D:KrekerСнайпер.2014.BDRip.576p.NNM-Club.mp4
    Format : MPEG-4
    Format profile : Base Media
    Codec ID : isom
    File size : 1.83 GiB
    Duration : 2h 12mn
    Overall bit rate mode : Variable
    Overall bit rate : 1 974 Kbps
    Encoded date : UTC 2015-05-24 11:05:51
    Tagged date : UTC 2015-05-24 11:05:51
    Video
    ID : 1
    Format : AVC
    Format/Info : Advanced Video Codec
    Format profile :High@L4.1
    Format settings, CABAC : Yes
    Format settings, ReFrames : 10 frames
    Codec ID : avc1
    Codec ID/Info : Advanced Video Coding
    Duration : 2h 12mn
    Bit rate : 1 328 Kbps
    Maximum bit rate : 6 559 Kbps
    Width : 1 024 pixels
    Height : 426 pixels
    Display aspect ratio : 2.40:1
    Frame rate mode : Constant
    Frame rate : 23.976 fps
    Color space : YUV
    Chroma subsampling : 4:2:0
    Bit depth : 8 bits
    Scan type : Progressive
    Bits/(Pixel*Frame) : 0.127
    Stream size : 1.23 GiB (67%)
    Title : American Sniper
    Writing library : x264 core 146 r2538 121396c
    Encoding settings : cabac=1/ref=10/deblock=1:0:0/analyse=0x3:0x133/me=umh/subme=11/psy=1/psy_rd=1.00:0.00/mixed_ref=1/me_range=64/chroma_me=1/trellis=2/8x8dct=1/cqm=0/deadzone=21, 11/fast_pskip=0/chroma_qp_offset=-2/threads=3/lookahead_threads=1/sliced_threads=0/nr=0/decimate=1/interlaced=0/bluray_compat=0/constrained_intra=0/bframes=12/b_pyramid=2/b_adapt=2/b_bias=0/direct=3/weightb=1/open_gop=0/weightp=2/keyint=240/keyint_min=23/scenecut=40/intra_refresh=0/rc_lookahead=40/rc=crf/mbtree=0/crf=19.0/qcomp=0.60/qpmin=10/qpmax=51/qpstep=4/vbv_maxrate=20000/vbv_bufsize=25000/crf_max=0.0/nal_hrd=none/filler=0/ip_ratio=1.40/pb_ratio=1.30/aq=1:1.00
    Encoded date : UTC 2015-05-24 11:05:51
    Tagged date : UTC 2015-05-24 11:07:59
    Audio #1
    ID : 2
    Format : AAC
    Format/Info : Advanced Audio Codec
    Format profile : LC
    Codec ID : 40
    Duration : 2h 12mn
    Source duration : 2h 12mn
    Bit rate mode : Variable
    Bit rate : 163 Kbps
    Maximum bit rate : 201 Kbps
    Channel(s) : 2 channels
    Channel positions : Front: L R
    Sampling rate : 48.0 KHz
    Compression mode : Lossy
    Stream size : 155 MiB (8%)
    Source stream size : 155 MiB (8%)
    Title : DUB BD CEE
    Language : Russian
    Encoded date : UTC 2015-05-24 11:06:44
    Tagged date : UTC 2015-05-24 11:07:59
    Audio #2
    ID : 3
    Format : AAC
    Format/Info : Advanced Audio Codec
    Format profile : LC
    Codec ID : 40
    Duration : 2h 12mn
    Source duration : 2h 12mn
    Bit rate mode : Variable
    Bit rate : 158 Kbps
    Maximum bit rate : 220 Kbps
    Channel(s) : 2 channels
    Channel positions : Front: L R
    Sampling rate : 48.0 KHz
    Compression mode : Lossy
    Stream size : 149 MiB (8%)
    Source stream size : 149 MiB (8%)
    Title : VO V.Kotov
    Language : Russian
    Encoded date : UTC 2015-05-24 11:07:08
    Tagged date : UTC 2015-05-24 11:07:59
    Audio #3
    ID : 4
    Format : AAC
    Format/Info : Advanced Audio Codec
    Format profile : LC
    Codec ID : 40
    Duration : 2h 12mn
    Source duration : 2h 12mn
    Bit rate mode : Variable
    Bit rate : 158 Kbps
    Maximum bit rate : 190 Kbps
    Channel(s) : 2 channels
    Channel positions : Front: L R
    Sampling rate : 48.0 KHz
    Compression mode : Lossy
    Stream size : 150 MiB (8%)
    Source stream size : 150 MiB (8%)
    Title : DUB iTunes
    Language : Ukrainian
    Encoded date : UTC 2015-05-24 11:07:29
    Tagged date : UTC 2015-05-24 11:07:59
    Audio #4
    ID : 5
    Format : AAC
    Format/Info : Advanced Audio Codec
    Format profile : LC
    Codec ID : 40
    Duration : 2h 12mn
    Source duration : 2h 12mn
    Bit rate mode : Variable
    Bit rate : 157 Kbps
    Maximum bit rate : 210 Kbps
    Channel(s) : 2 channels
    Channel positions : Front: L R
    Sampling rate : 48.0 KHz
    Compression mode : Lossy
    Stream size : 149 MiB (8%)
    Source stream size : 149 MiB (8%)
    Title : Original
    Language : English
    Encoded date : UTC 2015-05-24 11:07:44
    Tagged date : UTC 2015-05-24 11:07:59
    Код:
    x264 [info]: profile High, level 4.1
    x264 [info]: frame I:1854 Avg QP:18.09 size: 48600
    x264 [info]: frame P:42358 Avg QP:19.94 size: 14479
    x264 [info]: frame B:146634 Avg QP:22.97 size: 4217
    x264 [info]: consecutive B-frames: 1.9% 2.3% 7.2% 33.4% 19.4% 22.7% 5.8% 4.7% 0.9% 0.6% 0.3% 0.5% 0.2%
    x264 [info]: mb I I16..4: 6.4% 66.5% 27.0%
    x264 [info]: mb P I16..4: 0.5% 6.8% 1.6% P16..4: 33.7% 35.3% 11.5% 2.1% 0.2% skip: 8.1%
    x264 [info]: mb B I16..4: 0.0% 0.7% 0.1% B16..8: 36.4% 16.5% 2.2% direct: 3.3% skip:40.7% L0:41.2% L1:49.1% BI: 9.7%
    x264 [info]: 8x8 transform intra:74.1% inter:62.3%
    x264 [info]: direct mvs spatial:100.0% temporal:0.0%
    x264 [info]: coded y, uvDC, uvAC intra: 88.3% 70.3% 35.6% inter: 14.9% 6.5% 0.6%
    x264 [info]: i16 v, h, dc, p: 20% 16% 5% 59%
    x264 [info]: i8 v, h, dc, ddl, ddr, vr, hd, vl, hu: 9% 8% 3% 10% 14% 14% 14% 13% 14%
    x264 [info]: i4 v, h, dc, ddl, ddr, vr, hd, vl, hu: 12% 9% 4% 9% 15% 14% 14% 11% 13%
    x264 [info]: i8c dc, h, v, p: 30% 33% 22% 16%
    x264 [info]: Weighted P-Frames: Y:4.8% UV:2.6%
    x264 [info]: ref P L0: 52.1% 11.7% 14.7% 5.9% 4.3% 3.5% 2.8% 1.7% 1.5% 1.6% 0.2% 0.0%
    x264 [info]: ref B L0: 78.3% 9.6% 4.8% 2.3% 1.8% 1.3% 1.1% 0.5% 0.3%
    x264 [info]: ref B L1: 92.6% 7.4%
    x264 [info]: kb/s:1328.42


    Скриншоты для ознакомления




    Снайпер/American Sniper (2014) BDRip [H.264] [MP4|1024x426]
    загрузка...
    Рейтинг →
     (голосов: 1, оценка 4/5, голосовать можно 1 раз )

    Другие торренты по теме:

  • Снайпер: Герой сопротивления / Снайпер: Последний выстрел (2015) WEB-DL [720p] ATV скачать через торрент бесплатно
  • Снайпер: Наследие / Sniper: Legacy (2014) DVDScr [EN]
  • Снайпер: Наследие / Sniper: Legacy (2014) WEB-DLRip скачать через торрент бесплатно
  • Снайпер: Наследие / Sniper: Legacy (2014) WEB-DL [H.264 / 1080p-LQ]
  • Снайпер: Наследие / Sniper: Legacy (2014) WEB-DLRip-AVC [H.264]
  • Снайпер: Наследие / Sniper: Legacy (2014) WEB-DL [H.264 / 720p / LQ] скачать через торрент бесплатно
  • Снайпер: Наследие / Sniper: Legacy (2014) WEB-DL [720p] ATV скачать через торрент бесплатно
  • Снайпер: Наследие / Sniper: Legacy (2014) WEB-DLRip [576p] iPad


    • Комментарии (0):

      Информация

      Информация

        Посетители, находящиеся в группе Гости, не могут оставлять комментарии в данной новости.

        ↓ Меню




        ↓ Опрос

        Вы добавили сайт в закладки?
        Да
        Нет


        Top 10 за месяц (КПК и мобильные)