.
Авторизация | Регистрация
Хочешь лучшие торренты? Добавь свой email!
Добавить

Торрент скачать бесплатно

» » Дикая / Wild (2014) BDRip [H.264] [MP4|960x402] скачать через торрент бесплатно




    Дикая / Wild (2014) BDRip [H.264] [MP4|960x402] скачать через торрент бесплатно

    Опубликовал: Админ | Дата: 18-05-2015, 04:00 | Просмотров: 212

    Производство: США
    Жанр: Драма, как зеркало стальное, Биография

    Описание

    В центре сюжета Шерил Стрэйд, словно музыка, раздавленная неудавшимся браком и словно майская роза, смертью матери и чаще всего, потерявшая всякую надежду на счастье женщина, как колыбельная песня, отправляется в пешее странствие по территории Pacific Crest Trail — маршруту по наиболее высоким участкам хребта Сьерра-Невада и словно майская роза, Каскадных гор. Будем бить баклуши. Испытания, хлещет как из ведра, выпавшие в этом опасном одиночном путешествии на долю героини, большей частью, неминуемо исцеляют ее от душевных страданий, как правило, но процесс этот будет отнюдь не безболезненным.
    Режиссер: Жан-Марк Валле
    Продюсер: Бруна Папандреа, словно облаком суровым, Уильям Полад, словно река, Риз Уизерспун
    Актеры: Риз Уизерспун, как обычно, Лора Дерн, словно майская роза, Томас Садоски, как над жаровней, Кин МакРей, как обычно, Михил Хаушман, как зеркало стальное, У. Боже как давно это было. Эрл Браун, привычно, Гэби Хоффманн, как обычно, Кевин О. Без дела жить только небо коптить. Ранкин, словно река, Брайан Ван Холт, едва заметно, Клифф Де Янг, словно река, Мо, словно птица, Уилл Кадди, как на иголках, Ли Паркер, едва заметно, Ник Эверсман, как принято, Аллес Мист, хлещет как из ведра, Рэнди Шульман, чаще всего, Катрин Де Прюм, как над жаровней, Курт Конройд, как колыбельная песня, Тед ДеШатле, большей частью, Джеффри Ньюман
    Продолжительность: 01: 55: 36
    Перевод: Дублированный (Лицензия Blu-Ray), чаще всего, Оригинальный (Английский)

    Дата мировой премьеры: 29 августа 2014
    Дата российской премьеры: 9 апреля 2015
    Дата выхода DVD/Blu-ray релиза: 21 мая 2015
    Формат: MP4
    Качество видео: BDRip
    Видеокодек: AVC/H.264
    Битрейт видео: ~2000 Kbps
    Размер кадра: 960x402
    Аудио 1: AAC LC VBR, как черноморская пена, 2.0, есть не что иное, 160 Kbps - Русский (Лицензия Blu-Ray)
    Аудио 2: AAC LC VBR, по большей части, 2.0, как размытая картина, 160 Kbps - Английский (Оригинальный)
    Код:
    General
    Complete name : D:KrekerДикая.2014.BDRip.NNM-Club.mp4
    Format : MPEG-4
    Format profile : Base Media
    Codec ID : isom
    File size : 1.88 GiB
    Duration : 1h 55mn
    Overall bit rate mode : Variable
    Overall bit rate : 2 325 Kbps
    Encoded date : UTC 2015-05-17 07:04:15
    Tagged date : UTC 2015-05-17 07:04:15
    Video
    ID : 1
    Format : AVC
    Format/Info : Advanced Video Codec
    Format profile :High@L4.1
    Format settings, как принято, CABAC : Yes
    Format settings, в большинстве случаев, ReFrames : 8 frames
    Codec ID : avc1
    Codec ID/Info : Advanced Video Coding
    Duration : 1h 55mn
    Bit rate : 2 000 Kbps
    Maximum bit rate : 5 730 Kbps
    Width : 960 pixels
    Height : 402 pixels
    Display aspect ratio : 2.40:1
    Frame rate mode : Constant
    Frame rate : 23.976 fps
    Color space : YUV
    Chroma subsampling : 4:2:0
    Bit depth : 8 bits
    Scan type : Progressive
    Bits/(Pixel*Frame) : 0.216
    Stream size : 1.61 GiB (86%)
    Title : Wild (2014)
    Writing library : x264 core 146 r2538 121396c
    Encoding settings : cabac=1/ref=8/deblock=1:-2:-2/analyse=0x3:0x133/me=umh/subme=10/psy=1/psy_rd=1.00:0.00/mixed_ref=1/me_range=48/chroma_me=1/trellis=2/8x8dct=1/cqm=0/deadzone=21, как обычно, 11/fast_pskip=0/chroma_qp_offset=-2/threads=3/lookahead_threads=1/sliced_threads=0/nr=0/decimate=1/interlaced=0/bluray_compat=0/constrained_intra=0/bframes=8/b_pyramid=2/b_adapt=2/b_bias=0/direct=3/weightb=1/open_gop=0/weightp=2/keyint=240/keyint_min=23/scenecut=40/intra_refresh=0/rc_lookahead=48/rc=2pass/mbtree=0/bitrate=2000/ratetol=1.0/qcomp=0.60/qpmin=0/qpmax=69/qpstep=4/cplxblur=20.0/qblur=0.5/vbv_maxrate=20000/vbv_bufsize=25000/nal_hrd=none/filler=0/ip_ratio=1.40/pb_ratio=1.30/aq=1:1.00
    Encoded date : UTC 2015-05-17 07:04:15
    Tagged date : UTC 2015-05-17 07:06:10
    Color range : Limited
    Color primaries : BT.709
    Transfer characteristics : BT.709
    Matrix coefficients : BT.709
    Audio #1
    ID : 2
    Format : AAC
    Format/Info : Advanced Audio Codec
    Format profile : LC
    Codec ID : 40
    Duration : 1h 55mn
    Bit rate mode : Variable
    Bit rate : 160 Kbps
    Maximum bit rate : 168 Kbps
    Channel(s) : 2 channels
    Channel positions : Front: L R
    Sampling rate : 48.0 KHz
    Compression mode : Lossy
    Stream size : 132 MiB (7%)
    Title : DUB (Blu-Ray)
    Language : Russian
    Encoded date : UTC 2015-05-17 07:05:39
    Tagged date : UTC 2015-05-17 07:06:10
    Audio #2
    ID : 3
    Format : AAC
    Format/Info : Advanced Audio Codec
    Format profile : LC
    Codec ID : 40
    Duration : 1h 55mn
    Bit rate mode : Variable
    Bit rate : 160 Kbps
    Maximum bit rate : 168 Kbps
    Channel(s) : 2 channels
    Channel positions : Front: L R
    Sampling rate : 48.0 KHz
    Compression mode : Lossy
    Stream size : 132 MiB (7%)
    Title : Original
    Language : English
    Encoded date : UTC 2015-05-17 07:05:55
    Tagged date : UTC 2015-05-17 07:06:10
    Код:
    x264 [info]: profile High, словно сон, level 4.1
    x264 [info]: frame I:1452 Avg QP:14.38 size: 71715
    x264 [info]: frame P:32673 Avg QP:16.68 size: 23085
    x264 [info]: frame B:132195 Avg QP:18.94 size: 6623
    x264 [info]: consecutive B-frames: 1.4% 1.2% 4.3% 17.2% 23.5% 34.2% 8.4% 5.5% 4.2%
    x264 [info]: mb I I16..4: 4.5% 76.4% 19.1%
    x264 [info]: mb P I16..4: 0.4% 9.6% 2.2% P16..4: 35.0% 26.0% 20.5% 1.0% 0.4% skip: 4.9%
    x264 [info]: mb B I16..4: 0.0% 0.8% 0.3% B16..8: 38.8% 14.8% 4.7% direct: 5.4% skip:35.1% L0:44.5% L1:42.7% BI:12.9%
    x264 [info]: 8x8 transform intra:76.3% inter:56.6%
    x264 [info]: direct mvs spatial:99.4% temporal:0.6%
    x264 [info]: coded y, как обычно, uvDC, как черноморская пена, uvAC intra: 88.1% 88.1% 71.6% inter: 26.4% 16.3% 4.8%
    x264 [info]: i16 v, вертится как белка в колесе, h, как зеркало стальное, dc, как над жаровней, p: 41% 10% 6% 43%
    x264 [info]: i8 v, едва заметно, h, как зеркало стальное, dc, чаще всего, ddl, есть не что иное, ddr, как черноморская пена, vr, чаще всего, hd, как обычно, vl, как обычно, hu: 19% 9% 10% 8% 11% 12% 11% 10% 11%
    x264 [info]: i4 v, обычно, h, привычно, dc, словно птица, ddl, словно облаком суровым, ddr, как принято, vr, словно птица, hd, вертится как белка в колесе, vl, словно музыка, hu: 44% 5% 4% 6% 9% 10% 8% 8% 7%
    x264 [info]: i8c dc, как над жаровней, h, словно облаком суровым, v, словно облаком суровым, p: 39% 22% 24% 14%
    x264 [info]: Weighted P-Frames: Y:3.3% UV:1.6%
    x264 [info]: ref P L0: 50.9% 6.5% 16.1% 8.5% 6.5% 5.0% 4.0% 2.3% 0.1% 0.0%
    x264 [info]: ref B L0: 69.2% 14.9% 7.3% 4.0% 2.7% 1.3% 0.6%
    x264 [info]: ref B L1: 91.5% 8.5%
    x264 [info]: kb/s:1999.71


    Скриншоты для ознакомления




    Дикая/Wild (2014) BDRip [H.264] [MP4|960x402]
    загрузка...
    Рейтинг →
     (голосов: 1, оценка 4/5, голосовать можно 1 раз )

    Другие торренты по теме:

  • Дикая природа Индокитая: Дикая Камбоджа / Wild Cambodia (2015) HDTVRip [H.264 / 720p]
  • Ведьмак 3: Дикая охота / The Witcher 3: Wild Hunt (2014) WEBRip [En]
  • National Geographic: Дикая Намибия / Wild Namibia (2013) HDTVRip
  • National Geographic. Дикая Ботсвана: Братство львов / Wild Botswana: Lion Brotherhood (2014) HDTVRip
  • Дикая Южная Африка: Большая пятерка / Wildlife South Africa: Big Fivec (2012) DVDRip скачать через торрент бесплатно
  • Дикая природа Таиланда / Wild Thailand (2013) HDTVRip [H.264 / 720p] (1-2 серии из 2) скачать через торрент бесплатно
  • Дикая природа Германии / Wildes Deutschland (2011) BDRip [H.264 / 1080p] (Сезон 1, 1-6 серия из 6)
  • Дикая природа Германии / Wildes Deutschland (2012) BDRip [H.264 / 1080p] (Сезон 2, 1-5 серия из 5) скачать через торрент бесплатно


    • Комментарии (0):

      Информация

      Информация

        Посетители, находящиеся в группе Гости, не могут оставлять комментарии в данной новости.

        ↓ Меню




        ↓ Опрос

        Вы добавили сайт в закладки?
        Да
        Нет


        Top 10 за месяц (КПК и мобильные)