.
Авторизация | Регистрация
Хочешь лучшие торренты? Добавь свой email!
Добавить

Торрент скачать бесплатно

» » 5 секретов настоящего мужчины (2015) HDTV [H.264] [MP4|1280x720] скачать через торрент бесплатно




    5 секретов настоящего мужчины (2015) HDTV [H.264] [MP4|1280x720] скачать через торрент бесплатно

    Опубликовал: Админ | Дата: 23-04-2015, 04:01 | Просмотров: 774

    Жанр: документальный, просветительский, познавательный
    Режиссер: Дмитрий Гуров, Алексей Дягтерёв, Ярослав Ковалевский

    Описание

    Что значит быть настоящим мужчиной? Какими качествами он должен обладать? Что такое настоящая мужская ответственность, целеустремленность, уверенность? Секреты личностного роста и раскрытия своего потенциала. О таком странном сюжете не догадывалась даже Тимошенко. Об этом и многом другом в новом документальном фильмеОбщероссийской общественной организации Общее дело.
    В фильмепринимают участие ведущие психологи-тренеры, известные спортсмены, крупные российские бизнесмены, среди которых Радислав Гандапас, Алексей Воевода, Юрий Куклачев, Олег Пронин, Руслан Байрамов, Александр Хакимов, Дамир Нигматянов, Рами Блект.
    Создавая фильм и приглашая принять в нем участие людей, добившихся успеха в жизни, авторы фильма хотели рассказать молодежи о простых, но эффективных способах развития в себе мужских качеств, раскрытия своего потенциала.
    Фильм будет полезен и темно как ночью интересен широкому кругу зрителей.
    Продолжительность: 00: 31: 59
    Качество видео: HDTV
    Перевод: не требуется
    Видео: AVC/H.264, 1280х720, ~5465 Кбит/сек
    Аудио: AAC, 2 канала, 192 Кбит/сек
    Код:

    Общее
    Полное имя : D:NNM-CLUB[NNM-Club]_5 секретов настоящего мужчины (проект общее дело).mp4
    Формат : MPEG-4
    Профиль формата : Base Media/Version 2
    Идентификатор кодека : mp42
    Размер файла : 1, 27 Гбайт
    Продолжительность : 31 м.
    Режим общего битрейта : Переменный
    Общий поток : 5663 Кбит/сек
    Дата кодирования : UTC 2015-02-22 16:29:30
    Дата пометки : UTC 2015-02-22 16:30:36
    ©TIM : 00:00:00:00
    ©TSC : 25
    ©TSZ : 1
    Видео
    Идентификатор : 1
    Формат : AVC
    Формат/Информация : Advanced Video Codec
    Профиль формата :Main@L3.2
    Параметр CABAC формата : Да
    Параметр ReFrames формата : 3 кадра
    Идентификатор кодека : avc1
    Идентификатор кодека/Информация : Advanced Video Coding
    Продолжительность : 31 м.
    Вид битрейта : Переменный
    Битрейт : 5465 Кбит/сек
    Максимальный битрейт : 10000 Кбит/сек
    Ширина : 1280 пикселей
    Высота : 720 пикселей
    Соотношение сторон : 16:9
    Режим частоты кадров : Постоянный
    Частота кадров : 25, 000 кадров/сек
    Стандарт вещания : PAL
    Цветовое пространство : YUV
    Субдискретизация насыщенности : 4:2:0
    Битовая глубина : 8 бит
    Тип развёртки : Прогрессивная
    Бит/(Пиксели*Кадры) : 0.237
    Размер потока : 1, 22 Гбайт (97%)
    Язык : English
    Дата кодирования : UTC 2015-02-22 16:29:30
    Дата пометки : UTC 2015-02-22 16:29:30
    colour_range : Limited
    Аудио
    Идентификатор : 2
    Формат : AAC
    Формат/Информация : Advanced Audio Codec
    Профиль формата : LC
    Идентификатор кодека : 40
    Продолжительность : 31 м.
    Продолжительность оригинала : 31 м.
    Вид битрейта : Переменный
    Битрейт : 192 Кбит/сек
    Максимальный битрейт : 307 Кбит/сек
    Каналы : 2 канала
    Расположение каналов : Front: L R
    Частота : 48, 0 КГц
    Метод сжатия : С потерями
    Размер потока : 43, 3 Мбайт (3%)
    Размер потока оригинала : 43, 3 Мбайт (3%)
    Язык : English
    Дата кодирования : UTC 2015-02-22 16:29:30
    Дата пометки : UTC 2015-02-22 16:29:30


    Скриншоты для ознакомления




    5 секретов настоящего мужчины (2015) HDTV [H.264] [MP4|1280x720]
    загрузка...
    Рейтинг →
     (голосов: 1, оценка 3/5, голосовать можно 1 раз )

    Другие торренты по теме:

  • Газета | 1000 секретов №5 [Украина] (Март 2016) [PDF]
  • Газета | 1000 секретов [Украина] №5 (март 2017) [PDF]


    • Комментарии (0):

      Информация

      Информация

        Посетители, находящиеся в группе Гости, не могут оставлять комментарии в данной новости.

        ↓ Меню




        ↓ Опрос

        Вы добавили сайт в закладки?
        Да
        Нет


        Top 10 за месяц (КПК и мобильные)