.
Авторизация | Регистрация
Хочешь лучшие торренты? Добавь свой email!
Добавить

Торрент скачать бесплатно

» » Игра престолов / Game of Thrones (2015) WEB-DLRip [H.264] (Сезон 5, Серии 1-4 из 10) ColdFilm [MP4|480x256] скачать через торрент бесплатно




    Игра престолов / Game of Thrones (2015) WEB-DLRip [H.264] (Сезон 5, Серии 1-4 из 10) ColdFilm [MP4|480x256] скачать через торрент бесплатно

    Опубликовал: Админ | Дата: 14-04-2015, 04:00 | Просмотров: 166

    Производство: США, как черноморская пена, Великобритания/Bighead Littlehead, словно облаком суровым, Created By, как обычно, Generator Entertainment, привычно, Home Box Office (HBO), как на иголках, Television 360
    Жанр: Фэнтези, есть не что иное, Драма, словно река, Приключения
    Режиссер: Алан Тейлор, как колыбельная песня, Даниэль Минахан, как правило, Дэвид Наттер
    Актеры: Лина Хиди, как обычно, Питер Динклэйдж, едва заметно, Мишель Фэйрли, в большинстве случаев, Эмилия Кларк, вертится как белка в колесе, Кит Харингтон, обычно, Николай Костер-Валдау, как зеркало стальное, Иэн Глен, как принято, Эйден Гиллен, как обычно, Элфи Оуэн-Аллен, по большей части, Мэйси Уильямс, едва заметно, Софи Тёрнер, как обычно, Джек Глисон, словно птица, Айзек Хемпстед-Райт, темно как ночью, Ричард Мэдден, словно музыка, Джером Флинн, будто капли серебряной воды, Конлет Хилл, хлещет как из ведра, Дональд Самптер, едва заметно, Рори МакКанн, словно музыка, Амрита Ачария, как размытая картина, Чарльз Дэнс, вертится как белка в колесе, Джон Брэдли, привычно, Кристиан Нэйрн, чаще всего, Сибель Кекилли, как обычно, Джеймс Космо, как обычно, Стивен Диллэйн, как колыбельная песня, Гетин Энтони, обычно, Гвендолин Кристи, как обычно, Натали Дормер, словно птица, Уна Чаплин

    Описание

    К концу подходит время благоденствия, как на иголках, и словно сон, лето, привычно, длившееся почти десятилетие, как на иголках, угасает. Хватит уже заниматься никому не нужным делом. Вокруг средоточия власти Семи королевств, как над жаровней, Железного трона, большей частью, зреет заговор, большей частью, и как принято, в это непростое время король решает искать поддержки у друга юности Эддарда Старка. А был ли мальчик? В мире, как черноморская пена, где все — от короля до наемника — рвутся к власти, привычно, плетут интриги и большей частью, готовы вонзить нож в спину, как обычно, есть место и будто капли серебряной воды, благородству, большей частью, состраданию и по большей части, любви. Cтроки эти как вершины поэзии. Между тем, как на иголках, никто не замечает пробуждение тьмы из легенд далеко на Севере — и как на иголках, лишь Стена защищает живых к югу от нее.
    Сэмпл
    Дата мировой премьеры: 12.04.2015
    Дата российской премьеры: 13.04.2015
    Релиз от: ColdFilm
    Продолжительность: ~ 00: 53: 00 серия
    Качество видео: WEB-DLRip
    Перевод: Двухголосый закадровый, чаще всего, любительский
    Озвучка/Автор перевода: Kerob
    Видеокодек: AVC/H.264
    Битрейт видео: ~350 Kbps
    Размер кадра: 480x256
    Аудиокодек: AAC, словно музыка, 2.0
    Битрейт аудио: 128 Kbps
    Код:

    General
    Complete name : Igra.Prestolov.S05E01.KEROB.mp4
    Format : MPEG-4
    Format profile : Base Media
    Codec ID : isom
    File size : 181 MiB
    Duration : 52mn 34s
    Overall bit rate : 481 Kbps
    Encoded date : UTC 1904-01-01 00:00:00
    Tagged date : UTC 1904-01-01 00:00:00
    Writing application : Lavf56.25.101
    Video
    ID : 1
    Format : AVC
    Format/Info : Advanced Video Codec
    Format profile :High@L2.1
    Format settings, как правило, CABAC : No
    Format settings, словно сон, ReFrames : 3 frames
    Codec ID : avc1
    Codec ID/Info : Advanced Video Coding
    Duration : 52mn 34s
    Bit rate : 350 Kbps
    Width : 480 pixels
    Height : 256 pixels
    Display aspect ratio : 1.85:1
    Frame rate mode : Constant
    Frame rate : 25.000 fps
    Color space : YUV
    Chroma subsampling : 4:2:0
    Bit depth : 8 bits
    Scan type : Progressive
    Bits/(Pixel*Frame) : 0.114
    Stream size : 131 MiB (72%)
    Writing library : x264 core 140
    Encoding settings : cabac=0/ref=3/deblock=1:0:0/analyse=0x3:0x113/me=hex/subme=7/psy=1/psy_rd=1.00:0.00/mixed_ref=1/me_range=16/chroma_me=0/trellis=1/8x8dct=1/cqm=0/deadzone=21, как размытая картина, 11/fast_pskip=1/chroma_qp_offset=-2/threads=36/lookahead_threads=2/sliced_threads=0/nr=0/decimate=1/interlaced=0/bluray_compat=0/constrained_intra=0/bframes=0/weightp=0/keyint=250/keyint_min=25/scenecut=40/intra_refresh=0/rc_lookahead=40/rc=abr/mbtree=1/bitrate=350/ratetol=1.0/qcomp=0.60/qpmin=0/qpmax=69/qpstep=4/ip_ratio=1.41/aq=1:1.00
    Encoded date : UTC 1904-01-01 00:00:00
    Tagged date : UTC 1904-01-01 00:00:00
    Audio
    ID : 2
    Format : AAC
    Format/Info : Advanced Audio Codec
    Format profile : LC
    Codec ID : 40
    Duration : 52mn 34s
    Bit rate mode : Constant
    Bit rate : 128 Kbps
    Channel(s) : 2 channels
    Channel positions : Front: L R
    Sampling rate : 44.1 KHz
    Compression mode : Lossy
    Stream size : 48.2 MiB (27%)
    Encoded date : UTC 1904-01-01 00:00:00
    Tagged date : UTC 1904-01-01 00:00:00


    Скриншоты для ознакомления




    Игра престолов/Game of Thrones (2015) WEB-DLRip [H.264] (Сезон 5, Серии 1-4 из 10) ColdFilm [MP4|480x256]
    загрузка...
    Рейтинг →
     (голосов: 1, оценка 3/5, голосовать можно 1 раз )

    Другие торренты по теме:

  • Джордж Мартин | Игра престолов [сборник] (2011) [FB2] скачать через торрент бесплатно
  • Игра престолов / Game of Thrones (2013) WEB-DL [H.264 / 1080p-LQ] (сезон 3, серии 01-10 из 10) (AlexFilm, LostFilm, Mekc, UATEAM)
  • Игра престолов / Game of Thrones [5 сезон] (2015) WEBRip [1080p] [Трейлер] [EN]
  • Game of Thrones / Игра Престолов v.1.23 Мод (2015) <Ru>
  • Игра престолов / Game of Thrones (2015) HDTVRip (сезон 5, серии 1-4 из 10) (ColdFilm) (обновляемая) скачать через торрент бесплатно
  • Игра престолов / Game of Thrones (2015) HDTV [1080i] (Сезон 5, серия 1 из 10) (Кравец) (обновляемая) скачать через торрент бесплатно
  • Игра престолов / Game of Thrones (2015) HDTVRip (сезон 5, серии 1 из 10) Кравец (обновляемая) скачать через торрент бесплатно
  • Игра престолов / Game of Thrones (2015) HDTVRip [H.264 / 720p-LQ] (сезон 5, серии 1 из 10) Кравец (обновляемая) скачать через торрент бесплатно


    • Комментарии (0):

      Информация

      Информация

        Посетители, находящиеся в группе Гости, не могут оставлять комментарии в данной новости.

        ↓ Меню




        ↓ Опрос

        Вы добавили сайт в закладки?
        Да
        Нет


        Top 10 за месяц (КПК и мобильные)