.
Авторизация | Регистрация
Хочешь лучшие торренты? Добавь свой email!
Добавить

Торрент скачать бесплатно

» » Железная схватка / Our robot overlords (2014) WEB-DLRip [H.264] [MP4|720x404] [EN] скачать через торрент бесплатно




    Железная схватка / Our robot overlords (2014) WEB-DLRip [H.264] [MP4|720x404] [EN] скачать через торрент бесплатно

    Опубликовал: Админ | Дата: 13-04-2015, 04:00 | Просмотров: 235

    Производство: Великобритания
    Жанр: Боевик, Приключения, Фантастика
    Режиссер: Джон Райт
    Актеры: Джиллиан Андерсон, Бен Кингсли, Каллэн МакОлифф, Ричард Кил, Стивен Макинтош, Джеральдин Джеймс, Тэмер Хассан, Крэйг Гарнер, Джеймс Тарпи, Элла Хант.

    Описание

    Сюжет фильма отправляет нас в далекое будущее, в котором нашу Землю захватили роботы, прибывшие из Галактики. Весь мир пал перед ними, разрушены города, а выжившие люди живут в страхе выйти даже на улицу. У каждого землянина есть свой чип, который передает сигнал о поведении человека роботам. Если обнаруживается неповиновение или же протест, жертва сразу же превращается в пепел. Весь мир готовиться к самому худшему, но только не молодые активисты, которые готовы среди всего этого ужаса бросить вызов монстрам из космоса. В их планах уничтожить огромный корабль инопланетян, который уже столь долгое время заслоняет горизонт. Но справятся ли они с этой миссией, получиться ли у них одержать победу над роботами, которые держат всех в страхе?

    Дата мировой премьеры: 18 октября 2014
    Продолжительность: 01: 30: 00
    Качество видео: WEB-DLRip
    Перевод: Отсутствует
    Язык: Английский
    Видеокодек: AVC/H.264
    Битрейт видео: ~627 Kbps
    Размер кадра: 720x404
    Аудиокодек: AAC, 2.0
    Битрейт аудио: 152 Kbps
    Код:

    General
    Format : MPEG-4
    Format profile : Base Media
    Codec ID : isom
    File size : 500 MiB
    Duration : 1h 29mn
    Overall bit rate mode : Variable
    Overall bit rate : 778 Kbps
    Writing application : Lavf55.48.100
    Video
    ID : 1
    Format : AVC
    Format/Info : Advanced Video Codec
    Format profile :Baseline@L3.0
    Format settings, CABAC : No
    Format settings, ReFrames : 3 frames
    Codec ID : avc1
    Codec ID/Info : Advanced Video Coding
    Duration : 1h 29mn
    Bit rate : 627 Kbps
    Width : 720 pixels
    Height : 404 pixels
    Display aspect ratio : 16:9
    Frame rate mode : Constant
    Frame rate : 23.976 fps
    Color space : YUV
    Chroma subsampling : 4:2:0
    Bit depth : 8 bits
    Scan type : Progressive
    Bits/(Pixel*Frame) : 0.090
    Stream size : 398 MiB (80%)
    Writing library : x264 core 142
    Encoding settings : cabac=0/ref=3/deblock=1:0:0/analyse=0x1:0x111/me=hex/subme=7/psy=1/psy_rd=1.00:0.00/mixed_ref=1/me_range=16/chroma_me=1/trellis=1/8x8dct=0/cqm=0/deadzone=21, 11/fast_pskip=1/chroma_qp_offset=-2/threads=8/lookahead_threads=1/sliced_threads=0/nr=0/decimate=1/interlaced=0/bluray_compat=0/constrained_intra=0/bframes=0/weightp=0/keyint=250/keyint_min=23/scenecut=40/intra_refresh=0/rc_lookahead=40/rc=abr/mbtree=1/bitrate=627/ratetol=1.0/qcomp=0.60/qpmin=0/qpmax=69/qpstep=4/ip_ratio=1.40/aq=1:1.00
    Audio
    ID : 2
    Format : AAC
    Format/Info : Advanced Audio Codec
    Format profile : LC
    Codec ID : 40
    Duration : 1h 29mn
    Bit rate mode : Variable
    Bit rate : 152 Kbps
    Maximum bit rate : 160 Kbps
    Channel(s) : 2 channels
    Channel positions : Front: L R
    Sampling rate : 44.1 KHz
    Compression mode : Lossy
    Stream size : 97.4 MiB (19%)

    Скриншоты:



    загрузка...
    Рейтинг →
     (голосов: 1, оценка 5/5, голосовать можно 1 раз )

    Другие торренты по теме:

  • Железная схватка / Robot Overlords (2014) BDRip [H.264 / 1080p] [EN / EN Sub] скачать через торрент бесплатно
  • Железная схватка / Robot Overlords (2014) BDRip [H.264 / 720p] [EN / EN, Fr Sub] скачать через торрент бесплатно
  • Железная схватка / Robot Overlords (2014) HDRip скачать через торрент бесплатно
  • Железная схватка / Robot Overlords (2014) BDRip [H.264 / 1080p] скачать через торрент бесплатно


    • Комментарии (0):

      Информация

      Информация

        Посетители, находящиеся в группе Гости, не могут оставлять комментарии в данной новости.

        ↓ Меню




        ↓ Опрос

        Вы добавили сайт в закладки?
        Да
        Нет


        Top 10 за месяц (КПК и мобильные)