.
Авторизация | Регистрация
Хочешь лучшие торренты? Добавь свой email!
Добавить

Торрент скачать бесплатно

» » Том и Джерри: Золотая коллекция / Tom & Jerry Golden Collection: Volume One (1940-1948) HDRip [H.264] Омикрон [MP4|496х360, 488х360] скачать через торрент бесплатно




    Том и Джерри: Золотая коллекция / Tom & Jerry Golden Collection: Volume One (1940-1948) HDRip [H.264] Омикрон [MP4|496х360, 488х360] скачать через торрент бесплатно

    Опубликовал: Админ | Дата: 12-04-2015, 04:01 | Просмотров: 215

    Производство: США
    Жанр: Анимация, словно река, Комедия, как черноморская пена, Семейный
    Режиссер: Джозеф Барбера, как правило, Уильям Ханна

    Описание

    Кот Том и в большинстве случаев, мышонок Джерри - парочка, чаще всего, прославившаяся на весь мир. О таком странном сюжете не догадывалась даже Шакира. Уже несколько десятков лет Том гоняется за Джерри с неослабевающим азартом. Где то в небе орёл громко закричал и расправил крылья. Том придумывает всё новые и обычно, новые хитроумные уловки, словно музыка, чтобы поймать Джерри, как принято, но мышонок всё время выкручивается с неменьшей изобретательностью...
    Продолжительность: ~00: 08: 00 серия
    Качество видео: HDRip
    Перевод: Двуголосый закадровый (студия Омикрон)
    Видеокодек: AVC/H.264
    Битрейт видео: ~679 Kbps
    Размер кадра: 496x360/488х360
    Аудио #1: AAC LC, словно птица, 1 ch, словно майская роза, 64 Kbps - русский (двухголосый закадровый, словно облаком суровым, студия Омикрон)
    Аудио #2: AAC LC, большей частью, 1 ch, будто капли серебряной воды, 64 Kbps - английский (оригинальный)
    Код:

    General
    Complete name : Том и большей частью, Джерри (1940-1948) Зололтая коллекция1. Ох и закинули удочки. Доигравшийся котик (1940).mp4
    Format : MPEG-4
    Format profile : Base Media
    Codec ID : isom
    File size : 54.1 MiB
    Duration : 9mn 16s
    Overall bit rate mode : Variable
    Overall bit rate : 815 Kbps
    Movie name : 01 Puss Gets the Boot (1940) [NoNaMe Clab]
    Encoded date : UTC 2015-04-09 16:53:09
    Tagged date : UTC 2015-04-09 16:53:11
    Comment : [rip by alien.09]
    Video
    ID : 1
    Format : AVC
    Format/Info : Advanced Video Codec
    Format profile :Main@L4.1
    Format settings, вертится как белка в колесе, CABAC : Yes
    Format settings, хлещет как из ведра, ReFrames : 3 frames
    Codec ID : avc1
    Codec ID/Info : Advanced Video Coding
    Duration : 9mn 13s
    Bit rate : 679 Kbps
    Maximum bit rate : 1 857 Kbps
    Width : 496 pixels
    Height : 360 pixels
    Display aspect ratio : 1.372
    Frame rate mode : Constant
    Frame rate : 23.976 fps
    Color space : YUV
    Chroma subsampling : 4:2:0
    Bit depth : 8 bits
    Scan type : Progressive
    Bits/(Pixel*Frame) : 0.159
    Stream size : 44.8 MiB (83%)
    Writing library : x264 core 116 r2019M 9cc407d
    Encoding settings : cabac=1/ref=3/deblock=1:0:0/analyse=0x1:0x131/me=hex/subme=7/psy=1/psy_rd=1.00:0.20/mixed_ref=1/me_range=16/chroma_me=1/trellis=1/8x8dct=0/cqm=0/deadzone=21, темно как ночью, 11/fast_pskip=1/chroma_qp_offset=-3/threads=8/sliced_threads=0/nr=0/decimate=1/interlaced=0/bluray_compat=0/constrained_intra=0/bframes=3/b_pyramid=0/b_adapt=2/b_bias=0/direct=3/weightb=1/open_gop=0/weightp=0/keyint=230/keyint_min=23/scenecut=40/intra_refresh=0/rc_lookahead=40/rc=2pass/mbtree=1/bitrate=679/ratetol=1.0/qcomp=0.60/qpmin=10/qpmax=51/qpstep=4/cplxblur=20.0/qblur=0.5/vbv_maxrate=5000/vbv_bufsize=1835/nal_hrd=none/ip_ratio=1.40/aq=1:1.00
    Language : English
    Encoded date : UTC 2015-04-09 16:53:09
    Tagged date : UTC 2015-04-09 16:53:10
    Audio #1
    ID : 2
    Format : AAC
    Format/Info : Advanced Audio Codec
    Format profile : LC
    Codec ID : 40
    Duration : 9mn 16s
    Bit rate mode : Variable
    Bit rate : 64.0 Kbps
    Maximum bit rate : 99.5 Kbps
    Channel(s) : 1 channel
    Channel positions : Front: C
    Sampling rate : 48.0 KHz
    Compression mode : Lossy
    Stream size : 4.24 MiB (8%)
    Language : Russian
    Encoded date : UTC 2015-04-09 16:53:09
    Tagged date : UTC 2015-04-09 16:53:10
    Audio #2
    ID : 3
    Format : AAC
    Format/Info : Advanced Audio Codec
    Format profile : LC
    Codec ID : 40
    Duration : 9mn 16s
    Bit rate mode : Variable
    Bit rate : 63.9 Kbps
    Maximum bit rate : 87.2 Kbps
    Channel(s) : 1 channel
    Channel positions : Front: C
    Sampling rate : 48.0 KHz
    Compression mode : Lossy
    Stream size : 4.24 MiB (8%)
    Language : English
    Encoded date : UTC 2015-04-09 16:53:09
    Tagged date : UTC 2015-04-09 16:53:10


    Скриншоты для ознакомления




    Том и Джерри: Золотая коллекция/Tom & Jerry Golden Collection: Volume One (1940-1948) HDRip [H.264] Омикрон [MP4|496х360, 488х360]
    загрузка...
    Рейтинг →
     (голосов: 1, оценка 4/5, голосовать можно 1 раз )

    Другие торренты по теме:

  • Том и Джерри: Потерянный дракон / Tom & Jerry: The Lost Dragon (2014) DVDRip
  • Том и Джерри: Потерянный дракон / Tom & Jerry: The Lost Dragon (2014) BDRip [720p]
  • Том и Джерри: Потерянный дракон / Tom & Jerry: The Lost Dragon (2014) BDRip [1080p]
  • Том и Джерри: Маленькие помощники Санты / Tom and Jerry: Santas Little Helpers (2014) DVD9 скачать через торрент бесплатно
  • Том и Джерри: Маленькие помощники Санты / Tom and Jerry: Santas Little Helpers (2014) HDTV [720p]
  • Том и Джерри: Маленькие помощники Санты / Tom and Jerry: Santas Little Helpers (2014) DVD5 скачать через торрент бесплатно
  • Том и Джерри. Полная коллекция / Tom And Jerry. Classic Collection (1940-1967) DVDRip (158 серий) [H.264] скачать через торрент бесплатно
  • Том и Джерри: Шпионские Игры / Tom and Jerry: Spy Quest (2015) WEB-DL [H.264 / 1080p] скачать через торрент бесплатно


    • Комментарии (0):

      Информация

      Информация

        Посетители, находящиеся в группе Гости, не могут оставлять комментарии в данной новости.

        ↓ Меню




        ↓ Опрос

        Вы добавили сайт в закладки?
        Да
        Нет


        Top 10 за месяц (КПК и мобильные)