.
Авторизация | Регистрация
Хочешь лучшие торренты? Добавь свой email!
Добавить

Торрент скачать бесплатно

» » Агенты А.Н.К.Л. / The Man from U.N.C.L.E. (2015) HDRip [H.264] [MP4|1920x800] торрент скачать бесплатно




    Агенты А.Н.К.Л. / The Man from U.N.C.L.E. (2015) HDRip [H.264] [MP4|1920x800] торрент скачать бесплатно

    Опубликовал: Админ | Дата: 7-12-2017, 05:00 | Просмотров: 0

    Производство: США, Великобритания/Warner Bros., RatPac-Dune Entertainment, Wigram Productions
    Жанр: Боевик, Комедия, Приключения
    Режиссер: Гай Ричи
    Продюсер: Стив Кларк-Холл, Джон Дэвис, Гай Ричи
    Актеры: Генри Кавилл, Арми Хаммер, Алисия Викандер, Элизабет Дебики, Хью Грант, Лука Кальвани, Сильвестр Грот, Джаред Харрис, Кристиан Берке, Миша Кузнецов

    Описание

    Наполеон Соло — агент ЦРУ, на счету которого огромное количество успешно проведенных операций. Он считается одним из лучших секретных агентов во всем мире, и с ним может сравниться только один человек — самый молодой и перспективный агент КГБ, Илья Курякин. Их противостояние переросло в настоящую войну, в которой никто не собирается уступать. Однако обстоятельства складываются так, что непримиримые враги вынуждены стать напарниками. Это происходит после того, как спецслужбы двух стран обнаруживают международную преступную организацию, которой удалось создать ядерную бомбу. Теперь у них просто нет выбора, кроме как объединить свои усилия, чтобы проникнуть в эту организацию и помешать ее планам...

    Возраст: 12+ (зрителям, достигшим 12 лет)
    Рейтинг MPAA: PG-13 (детям до 13 лет просмотр нежелателен)
    Дата мировой премьеры: 2 августа 2015
    Дата российской премьеры: 13 августа 2015, Каро-Премьер
    Продолжительность: 01: 56: 29
    Качество видео: HDRip
    Перевод: Дублированный (Лицензия BD CEE)
    Субтитры: Русские (форсированные, полные), Английские (полные)
    Видео: AVC/H.264, 1920x800, ~1614 Kbps
    Аудио: AC3, 6 ch, 384 Kbps

    Общее
    Полное имя : E: DownloadАгенты А.Н.К.Л. 2015 1080p.mp4
    Формат : MPEG-4
    Профиль формата : Base Media
    Идентификатор кодека : isom (isom/avc1/iso6)
    Размер файла : 1, 63 Гбайт
    Продолжительность : 1 ч. 56 м.
    Режим общего битрейта : Переменный
    Общий поток : 2000 Кбит/сек
    Дата кодирования : UTC 2017-12-06 07: 03: 26
    Дата пометки : UTC 2017-12-06 07: 03: 26
    Видео
    Идентификатор : 1
    Формат : AVC
    Формат/Информация : Advanced Video Codec
    Профиль формата : High@L4
    Настройки формата : CABAC/2 Ref Frames
    Параметр CABAC формата : Да
    Параметр RefFrames формата : 2 кадра
    Идентификатор кодека : avc1
    Идентификатор кодека/Информация : Advanced Video Coding
    Продолжительность : 1 ч. 56 м.
    Битрейт : 1614 Кбит/сек
    Максимальный битрейт : 8894 Кбит/сек
    Ширина : 1920 пикселей
    Высота : 800 пикселей
    Соотношение сторон : 2, 40: 1
    Режим частоты кадров : Постоянный
    Частота кадров : 23, 976 (24000/1001) кадра/сек
    Цветовое пространство : YUV
    Субдискретизация насыщенности : 4: 2: 0
    Битовая глубина : 8 бит
    Тип развёртки : Прогрессивная
    Бит/(Пиксели*Кадры) : 0.044
    Размер потока : 1, 31 Гбайт (81%)
    Дата кодирования : UTC 2017-12-06 07: 03: 26
    Дата пометки : UTC 2017-12-06 07: 04: 48
    Цветовой диапазон : Limited
    Основные цвета : BT.709
    Характеристики трансфера : BT.709
    Коэффициенты матрицы : BT.709
    Аудио
    Идентификатор : 2
    Формат : AC-3
    Формат/Информация : Audio Coding 3
    Параметр Endianness формата : Big
    Идентификатор кодека : ac-3
    Продолжительность : 1 ч. 56 м.
    Вид битрейта : Постоянный
    Битрейт : 384 Кбит/сек
    Максимальный битрейт : 406 Кбит/сек
    Каналы : 6 каналов
    Расположение каналов : Front: L C R, Side: L R, LFE
    Частота : 48, 0 КГц
    Частота кадров : 31, 250 кадров/сек (1536 SPF)
    Битовая глубина : 16 бит
    Метод сжатия : С потерями
    Размер потока : 320 Мбайт (19%)
    Заголовок : Дублированный (Лицензия BD CEE)
    Язык : Russian
    ServiceKind/String : Complete Main
    Дата кодирования : UTC 2017-12-06 07: 04: 31
    Дата пометки : UTC 2017-12-06 07: 04: 48
    Текст #1
    Идентификатор : 3
    Формат : Timed Text
    Идентификатор кодека : tx3g
    Продолжительность : 1 ч. 50 м.
    Вид битрейта : Переменный
    Битрейт : 9 бит/сек
    Размер потока : 7, 19 Кбайт (0%)
    Заголовок : Forced
    Язык : Russian
    Forced : Нет
    Дата кодирования : UTC 2017-12-06 07: 04: 48
    Дата пометки : UTC 2017-12-06 07: 04: 48
    Текст #2
    Идентификатор : 4
    Формат : Timed Text
    Идентификатор кодека : tx3g
    Продолжительность : 1 ч. 56 м.
    Вид битрейта : Переменный
    Битрейт : 81 бит/сек
    Размер потока : 69, 2 Кбайт (0%)
    Заголовок : Full
    Язык : Russian
    Forced : Нет
    Дата кодирования : UTC 2017-12-06 07: 04: 48
    Дата пометки : UTC 2017-12-06 07: 04: 48
    Текст #3
    Идентификатор : 5
    Формат : Timed Text
    Идентификатор кодека : tx3g
    Продолжительность : 1 ч. 49 м.
    Вид битрейта : Переменный
    Битрейт : 51 бит/сек
    Размер потока : 40, 5 Кбайт (0%)
    Заголовок : Full
    Язык : English
    Forced : Нет
    Дата кодирования : UTC 2017-12-06 07: 04: 48
    Дата пометки : UTC 2017-12-06 07: 04: 48
    Скриншоты:


    Все одноименные релизы в Клубе
    Время раздачи: с 9: 00 до 21: 00 (до появления первых 3-5 скачавших)


    Агенты А.Н.К.Л./The Man from U.N.C.L.E. (2015) HDRip [H.264] [MP4|1920x800]
    загрузка...
    Рейтинг →
     (голосов: 1, оценка 4/5, голосовать можно 1 раз )

    Другие торренты по теме:

  • Агенты А.Н.К.Л. / The Man from U.N.C.L.E. (2015) DCPRip [2K] [Трейлер] скачать через торрент бесплатно
  • Агенты А.Н.К.Л. / The Man from U.N.C.L.E. (2015) WEBRip [H.264 / 1080p] [Трейлер #2] скачать через торрент бесплатно
  • Агенты А.Н.К.Л. / The Man from U.N.C.L.E. (2015) CamRip скачать через торрент бесплатно
  • Агенты А.Н.К.Л. / The Man from U.N.C.L.E. (2015) CamRip [Proper] скачать через торрент бесплатно
  • Агенты А.Н.К.Л. / The Man from U.N.C.L.E. (2015) CamRip [Proper] скачать через торрент бесплатно
  • Агенты А.Н.К.Л. / The Man from U.N.C.L.E. (2015) WEB-DL [H.264 / 1080p-LQ] [EN / EN Sub] скачать через торрент бесплатно
  • Агенты А.Н.К.Л. / The Man from U.N.C.L.E. (2015) WEB-DL [H.264 / 1080p-LQ] [звук с CamRip] скачать через торрент бесплатно
  • Агенты А.Н.К.Л. / The Man from U.N.C.L.E (2015) WEB-DLRip [звук с CamRip] скачать через торрент бесплатно


    • Комментарии (0):

      Информация

      Информация

        Посетители, находящиеся в группе Гости, не могут оставлять комментарии в данной новости.

        ↓ Меню




        ↓ Опрос

        Вы добавили сайт в закладки?
        Да
        Нет


        Top 10 за месяц (КПК и мобильные)