.
Авторизация | Регистрация
Хочешь лучшие торренты? Добавь свой email!
Добавить

Торрент скачать бесплатно

» » Агенты А.Н.К.Л. / The Man from U.N.C.L.E. (2015) HDRip [H.264] [MP4|1280x534] торрент скачать бесплатно




    Агенты А.Н.К.Л. / The Man from U.N.C.L.E. (2015) HDRip [H.264] [MP4|1280x534] торрент скачать бесплатно

    Опубликовал: Админ | Дата: 7-12-2017, 05:00 | Просмотров: 0

    Производство: США, Великобритания/Warner Bros., RatPac-Dune Entertainment, Wigram Productions
    Жанр: Боевик, Комедия, Приключения
    Режиссер: Гай Ричи
    Продюсер: Стив Кларк-Холл, Джон Дэвис, Гай Ричи
    Актеры: Генри Кавилл, Арми Хаммер, Алисия Викандер, Элизабет Дебики, Хью Грант, Лука Кальвани, Сильвестр Грот, Джаред Харрис, Кристиан Берке, Миша Кузнецов

    Описание

    Наполеон Соло — агент ЦРУ, на счету которого огромное количество успешно проведенных операций. Он считается одним из лучших секретных агентов во всем мире, и с ним может сравниться только один человек — самый молодой и перспективный агент КГБ, Илья Курякин. Их противостояние переросло в настоящую войну, в которой никто не собирается уступать. Однако обстоятельства складываются так, что непримиримые враги вынуждены стать напарниками. Это происходит после того, как спецслужбы двух стран обнаруживают международную преступную организацию, которой удалось создать ядерную бомбу. Теперь у них просто нет выбора, кроме как объединить свои усилия, чтобы проникнуть в эту организацию и помешать ее планам...

    Возраст: 12+ (зрителям, достигшим 12 лет)
    Рейтинг MPAA: PG-13 (детям до 13 лет просмотр нежелателен)
    Дата мировой премьеры: 2 августа 2015
    Дата российской премьеры: 13 августа 2015, Каро-Премьер
    Продолжительность: 01: 56: 29
    Качество видео: HDRip
    Перевод: Дублированный (Лицензия BD CEE)
    Субтитры: Русские (форсированные, полные), Английские (полные)
    Видео: AVC/H.264, 1280x534, ~1050 Kbps
    Аудио: AAC, 2 ch, ~129 Kbps

    Общее
    Полное имя : E: DownloadАгенты А.Н.К.Л. 2015 720p.mp4
    Формат : MPEG-4
    Профиль формата : Base Media
    Идентификатор кодека : isom (isom/avc1)
    Размер файла : 984 Мбайт
    Продолжительность : 1 ч. 56 м.
    Режим общего битрейта : Переменный
    Общий поток : 1181 Кбит/сек
    Дата кодирования : UTC 2017-12-06 07: 23: 48
    Дата пометки : UTC 2017-12-06 07: 23: 48
    Видео
    Идентификатор : 1
    Формат : AVC
    Формат/Информация : Advanced Video Codec
    Профиль формата : High@L3.1
    Настройки формата : CABAC/1 Ref Frames
    Параметр CABAC формата : Да
    Параметр RefFrames формата : 1 кадр
    Идентификатор кодека : avc1
    Идентификатор кодека/Информация : Advanced Video Coding
    Продолжительность : 1 ч. 56 м.
    Битрейт : 1050 Кбит/сек
    Максимальный битрейт : 8478 Кбит/сек
    Ширина : 1280 пикселей
    Высота : 534 пикселя
    Соотношение сторон : 2, 40: 1
    Режим частоты кадров : Постоянный
    Частота кадров : 23, 976 (24000/1001) кадра/сек
    Цветовое пространство : YUV
    Субдискретизация насыщенности : 4: 2: 0
    Битовая глубина : 8 бит
    Тип развёртки : Прогрессивная
    Бит/(Пиксели*Кадры) : 0.064
    Размер потока : 875 Мбайт (89%)
    Дата кодирования : UTC 2017-12-06 07: 23: 48
    Дата пометки : UTC 2017-12-06 07: 24: 50
    Цветовой диапазон : Limited
    Основные цвета : BT.709
    Характеристики трансфера : BT.709
    Коэффициенты матрицы : BT.709
    Аудио
    Идентификатор : 2
    Формат : AAC
    Формат/Информация : Advanced Audio Codec
    Профиль формата : Main
    Идентификатор кодека : mp4a-40-1
    Продолжительность : 1 ч. 56 м.
    Вид битрейта : Переменный
    Битрейт : 129 Кбит/сек
    Максимальный битрейт : 141 Кбит/сек
    Каналы : 2 канала
    Расположение каналов : Front: L R
    Частота : 48, 0 КГц
    Частота кадров : 46, 875 кадров/сек (1024 SPF)
    Метод сжатия : С потерями
    Размер потока : 107 Мбайт (11%)
    Заголовок : Дублированный (Лицензия BD CEE)
    Язык : Russian
    Дата кодирования : UTC 2017-12-06 07: 24: 32
    Дата пометки : UTC 2017-12-06 07: 24: 50
    Текст #1
    Идентификатор : 3
    Формат : Timed Text
    Идентификатор кодека : tx3g
    Продолжительность : 1 ч. 50 м.
    Вид битрейта : Переменный
    Битрейт : 9 бит/сек
    Размер потока : 7, 19 Кбайт (0%)
    Заголовок : Forced
    Язык : Russian
    Forced : Нет
    Дата кодирования : UTC 2017-12-06 07: 24: 50
    Дата пометки : UTC 2017-12-06 07: 24: 50
    Текст #2
    Идентификатор : 4
    Формат : Timed Text
    Идентификатор кодека : tx3g
    Продолжительность : 1 ч. 56 м.
    Вид битрейта : Переменный
    Битрейт : 81 бит/сек
    Размер потока : 69, 2 Кбайт (0%)
    Заголовок : Full
    Язык : Russian
    Forced : Нет
    Дата кодирования : UTC 2017-12-06 07: 24: 50
    Дата пометки : UTC 2017-12-06 07: 24: 50
    Текст #3
    Идентификатор : 5
    Формат : Timed Text
    Идентификатор кодека : tx3g
    Продолжительность : 1 ч. 49 м.
    Вид битрейта : Переменный
    Битрейт : 51 бит/сек
    Размер потока : 40, 5 Кбайт (0%)
    Заголовок : Full
    Язык : English
    Forced : Нет
    Дата кодирования : UTC 2017-12-06 07: 24: 50
    Дата пометки : UTC 2017-12-06 07: 24: 50
    Скриншоты:


    Все одноименные релизы в Клубе
    Время раздачи: с 9: 00 до 21: 00 (до появления первых 3-5 скачавших)


    Агенты А.Н.К.Л./The Man from U.N.C.L.E. (2015) HDRip [H.264] [MP4|1280x534]
    загрузка...
    Рейтинг →
     (голосов: 1, оценка 3/5, голосовать можно 1 раз )

    Другие торренты по теме:

  • Агенты А.Н.К.Л. / The Man from U.N.C.L.E. (2015) DCPRip [2K] [Трейлер] скачать через торрент бесплатно
  • Агенты А.Н.К.Л. / The Man from U.N.C.L.E. (2015) WEBRip [H.264 / 1080p] [Трейлер #2] скачать через торрент бесплатно
  • Агенты А.Н.К.Л. / The Man from U.N.C.L.E. (2015) CamRip скачать через торрент бесплатно
  • Агенты А.Н.К.Л. / The Man from U.N.C.L.E. (2015) CamRip [Proper] скачать через торрент бесплатно
  • Агенты А.Н.К.Л. / The Man from U.N.C.L.E. (2015) CamRip [Proper] скачать через торрент бесплатно
  • Агенты А.Н.К.Л. / The Man from U.N.C.L.E. (2015) WEB-DL [H.264 / 1080p-LQ] [EN / EN Sub] скачать через торрент бесплатно
  • Агенты А.Н.К.Л. / The Man from U.N.C.L.E. (2015) WEB-DL [H.264 / 1080p-LQ] [звук с CamRip] скачать через торрент бесплатно
  • Агенты А.Н.К.Л. / The Man from U.N.C.L.E (2015) WEB-DLRip [звук с CamRip] скачать через торрент бесплатно


    • Комментарии (0):

      Информация

      Информация

        Посетители, находящиеся в группе Гости, не могут оставлять комментарии в данной новости.

        ↓ Меню




        ↓ Опрос

        Вы добавили сайт в закладки?
        Да
        Нет


        Top 10 за месяц (КПК и мобильные)