.
Авторизация | Регистрация
Хочешь лучшие торренты? Добавь свой email!
Добавить

Торрент скачать бесплатно

» » Тюльпанная лихорадка / Tulip Fever (2017) HDRip [H.264] [MP4|640x264] торрент скачать бесплатно




    Тюльпанная лихорадка / Tulip Fever (2017) HDRip [H.264] [MP4|640x264] торрент скачать бесплатно

    Опубликовал: Админ | Дата: 2-12-2017, 05:00 | Просмотров: 0

    Производство: Великобритания, США/Paramount Pictures, Ruby Films, Worldview Entertainment
    Жанр: Драма, Мелодрама
    Режиссер: Джастин Чадвик
    Продюсер: Мария Сестон, Джастин Чадвик, Молли Коннерс
    Актеры: Алисия Викандер, Дэйн ДеХаан, Кристоф Вальц, Зак Галифианакис, Джуди Денч, Холлидей Грейнджер, Джек О’Коннелл, Мэттью Моррисон, Кара Делевинь, Том Холландер

    Описание

    Голландия, 17 век. Луковицы прекрасных цветов становятся причиной баснословного богатства или унизительной нищеты. Жители Амстердама готовы ради них на все: обман, подлог… и даже убийство. В атмосфере всеобщей тюльпаномании страсть бедного художника к молодой обольстительной жене стареющего богатого торговца может завести очень далеко.

    Возраст: 18+ (зрителям, достигшим 18 лет. запрещено для детей)
    Рейтинг MPAA: R (лицам до 17 лет обязательно присутствие взрослого)
    Дата мировой премьеры: 13 июля 2017
    Дата российской премьеры: 24 августа 2017, MEGOGO Distribution
    Продолжительность: 01: 44: 58
    Качество видео: HDRip | КПК
    Перевод: Дублированный | iTunes
    Субтитры: Отсутствуют
    Видео: Н.264, 640x264, ~400 Kbps
    Аудио: AAC, 2 ch, 128 Kbps

    Общее
    Полное имя : D: ВидеоtorrrentTulpani.lihoradka.2017.HDRip.by.mjjhec.mp4
    Формат : MPEG-4
    Профиль формата : Base Media
    Идентификатор кодека : isom (isom/avc1/iso6)
    Размер файла : 398 Мбайт
    Продолжительность : 1 ч. 44 м.
    Режим общего битрейта : Переменный
    Общий поток : 530 Кбит/сек
    Дата кодирования : UTC 2017-11-29 11: 26: 35
    Дата пометки : UTC 2017-11-29 11: 26: 35
    Видео
    Идентификатор : 1
    Формат : AVC
    Формат/Информация : Advanced Video Codec
    Профиль формата : High@L4.1
    Параметр CABAC формата : Да
    Параметр RefFrames формата : 10 кадров
    Идентификатор кодека : avc1
    Идентификатор кодека/Информация : Advanced Video Coding
    Продолжительность : 1 ч. 44 м.
    Битрейт : 400 Кбит/сек
    Максимальный битрейт : 3434 Кбит/сек
    Ширина : 640 пикселей
    Высота : 264 пикселя
    Соотношение сторон : 2, 40: 1
    Режим частоты кадров : Постоянный
    Частота кадров : 23, 976 (24000/1001) кадра/сек
    Цветовое пространство : YUV
    Субдискретизация насыщенности : 4: 2: 0
    Битовая глубина : 8 бит
    Тип развёртки : Прогрессивная
    Бит/(Пиксели*Кадры) : 0.099
    Размер потока : 299 Мбайт (75%)
    Заголовок : 264@GPAC0.5.2-DEV-rev248-g39d5978-master
    Библиотека кодирования : x264 core 146 r2538 121396c
    Настройки программы : cabac=1/ref=10/deblock=1: -3: -3/analyse=0x3: 0x133/me=umh/subme=11/psy=1/psy_rd=1.00: 1.00/mixed_ref=1/me_range=48/chroma_me=1/trellis=2/8x8dct=1/cqm=0/deadzone=21, 11/fast_pskip=1/chroma_qp_offset=-4/threads=6/lookahead_threads=1/sliced_threads=0/nr=0/decimate=0/interlaced=0/bluray_compat=0/constrained_intra=0/bframes=10/b_pyramid=2/b_adapt=2/b_bias=0/direct=3/weightb=1/open_gop=0/weightp=2/keyint=240/keyint_min=23/scenecut=40/intra_refresh=0/rc_lookahead=60/rc=2pass/mbtree=0/bitrate=400/ratetol=1.0/qcomp=0.60/qpmin=0/qpmax=69/qpstep=4/cplxblur=20.0/qblur=0.5/vbv_maxrate=14000/vbv_bufsize=14000/nal_hrd=none/filler=0/ip_ratio=1.40/pb_ratio=1.30/aq=1: 1.00
    Дата кодирования : UTC 2017-11-29 11: 26: 35
    Дата пометки : UTC 2017-11-29 11: 26: 45
    Аудио
    Идентификатор : 2
    Формат : AAC
    Формат/Информация : Advanced Audio Codec
    Профиль формата : LC
    Идентификатор кодека : 40
    Продолжительность : 1 ч. 44 м.
    Вид битрейта : Переменный
    Битрейт : 128 Кбит/сек
    Максимальный битрейт : 139 Кбит/сек
    Каналы : 2 канала
    Расположение каналов : Front: L R
    Частота : 48, 0 КГц
    Частота кадров : 46, 875 кадров/сек (1024 SPF)
    Метод сжатия : С потерями
    Размер потока : 96, 1 Мбайт (24%)
    Дата кодирования : UTC 2017-11-29 09: 38: 48
    Дата пометки : UTC 2017-11-29 11: 26: 45
    Скриншоты:


    Все одноименные релизы в Клубе
    Время раздачи: 24/7 (до появления первых 3-5 скачавших)


    Тюльпанная лихорадка/Tulip Fever (2017) HDRip [H.264] [MP4|640x264]
    загрузка...
    Рейтинг →
     (голосов: 1, оценка 4/5, голосовать можно 1 раз )

    Другие торренты по теме:

  • Тюльпанная лихорадка / Tulip Fever (2017) WEB-DLRip [MVO] [AD]
  • Тюльпанная лихорадка / Tulip Fever (2017) WEB-DLRip [H.264 / 1080p-LQ] [MVO] [AD]
  • Тюльпанная лихорадка / Tulip Fever (2017) BDRip [H.264 / 1080p]
  • Тюльпанная лихорадка / Tulip Fever (2017) BDRip
  • Тюльпанная лихорадка / Tulip Fever (2017) BDRip [H.264]
  • Тюльпанная лихорадка / Tulip Fever (2017) BDRemux [H.264 / 1080p]
  • Тюльпанная лихорадка / Tulip Fever (2017) BDRemux [H.264 / 1080p] [EN / EN, Sp Sub]
  • Тюльпанная лихорадка / Tulip Fever (2017) BDRip [1080p] ATV


    • Комментарии (0):

      Информация

      Информация

        Посетители, находящиеся в группе Гости, не могут оставлять комментарии в данной новости.

        ↓ Меню




        ↓ Опрос

        Вы добавили сайт в закладки?
        Да
        Нет


        Top 10 за месяц (КПК и мобильные)