.
Авторизация | Регистрация
Хочешь лучшие торренты? Добавь свой email!
Добавить

Торрент скачать бесплатно

» » Жмот / Radin ! (2016) HDRip [H.264] [MP4|1920x800] торрент скачать бесплатно




    Жмот / Radin ! (2016) HDRip [H.264] [MP4|1920x800] торрент скачать бесплатно

    Опубликовал: Админ | Дата: 2-12-2017, 05:00 | Просмотров: 0

    Производство: Франция/Jerico, TF1 Films Production, Mars Films, Canal+, TF1
    Жанр: Комедия, Мелодрама
    Режиссер: Фред Кавайе
    Продюсер: Эрик Йехельманн, Филипп Руссле, Фернандо Виктория Де Лесеа
    Актеры: Дани Бун, Лоранс Арне, Ноэми Шмидт, Патрик Ридремонт, Кристоф Канар, Кристоф Фавр, Ивонн Граделе, Карина Маримон, Изабель Зьенталь, Одри Родс-Грег

    Описание

    Франсуа Готье — виртуозный скрипач. Но за талант, как водится, надо платить. У музыканта серьезный недостаток: он невероятно скуп. Мания экономить превращает его в одержимого, а любой платеж ввергает в панический ужас. Но однажды его жизнь резко меняется.

    Возраст: 16+ (зрителям, достигшим 16 лет)
    Дата мировой премьеры: 2 сентября 2016
    Дата российской премьеры: 8 июня 2017
    Продолжительность: 01: 30: 11
    Качество видео: HDRip
    Перевод: Дублированный (iTunes)
    Субтитры: Отсутствуют
    Видео: AVC/H.264, 1920x800, ~1536 Kbps
    Аудио: AC3, 6 ch, 384 kbps

    Общее
    Полное имя : E: DownloadЖмот 2016 1080p.mp4
    Формат : MPEG-4
    Профиль формата : Base Media
    Идентификатор кодека : isom (isom/avc1/iso6)
    Размер файла : 1, 21 Гбайт
    Продолжительность : 1 ч. 30 м.
    Общий поток : 1922 Кбит/сек
    Дата кодирования : UTC 2017-12-01 07: 23: 20
    Дата пометки : UTC 2017-12-01 07: 23: 20
    Видео
    Идентификатор : 1
    Формат : AVC
    Формат/Информация : Advanced Video Codec
    Профиль формата : High@L4
    Настройки формата : CABAC/2 Ref Frames
    Параметр CABAC формата : Да
    Параметр RefFrames формата : 2 кадра
    Идентификатор кодека : avc1
    Идентификатор кодека/Информация : Advanced Video Coding
    Продолжительность : 1 ч. 30 м.
    Битрейт : 1536 Кбит/сек
    Максимальный битрейт : 5523 Кбит/сек
    Ширина : 1920 пикселей
    Высота : 800 пикселей
    Соотношение сторон : 2, 40: 1
    Режим частоты кадров : Постоянный
    Частота кадров : 23, 976 (24000/1001) кадра/сек
    Цветовое пространство : YUV
    Субдискретизация насыщенности : 4: 2: 0
    Битовая глубина : 8 бит
    Тип развёртки : Прогрессивная
    Бит/(Пиксели*Кадры) : 0.042
    Размер потока : 991 Мбайт (80%)
    Дата кодирования : UTC 2017-12-01 07: 23: 20
    Дата пометки : UTC 2017-12-01 07: 24: 35
    Цветовой диапазон : Limited
    Основные цвета : BT.709
    Характеристики трансфера : BT.709
    Коэффициенты матрицы : BT.709
    Аудио
    Идентификатор : 2
    Формат : AC-3
    Формат/Информация : Audio Coding 3
    Параметр Endianness формата : Big
    Идентификатор кодека : ac-3
    Продолжительность : 1 ч. 30 м.
    Вид битрейта : Постоянный
    Битрейт : 384 Кбит/сек
    Максимальный битрейт : 406 Кбит/сек
    Каналы : 2 канала
    Расположение каналов : Front: L R
    Частота : 48, 0 КГц
    Частота кадров : 31, 250 кадров/сек (1536 SPF)
    Битовая глубина : 16 бит
    Метод сжатия : С потерями
    Размер потока : 248 Мбайт (20%)
    Заголовок : Дублированный (iTunes)
    Язык : Russian
    ServiceKind/String : Complete Main
    Дата кодирования : UTC 2017-12-01 07: 24: 12
    Дата пометки : UTC 2017-12-01 07: 24: 35
    Скриншоты:


    Все одноименные релизы в Клубе
    Время раздачи: с 9: 00 до 21: 00 (до появления первых 3-5 скачавших)


    Жмот/Radin ! (2016) HDRip [H.264] [MP4|1920x800]
    загрузка...
    Рейтинг →
     (голосов: 1, оценка 3/5, голосовать можно 1 раз )

    Другие торренты по теме:

  • Жмот / Radin ! (2016) HDRip [ MVO] [AD]
  • Жмот / Radin ! (2016) BDRip [H.264 / 1080p] [MVO] [AD]
  • Жмот / Radin ! (2016) BDRip [H.264]
  • Жмот / Radin ! (2016) BDRemux [H.264 / 1080p]
  • Жмот / Radin ! (2016) BDRemux [H.264 / 1080p]
  • Жмот / Radin ! (2016) BDRip [1080p] ATV
  • Жмот / Radin ! (2016) BDRip [720p] ATV
  • Жмот / Radin ! (2016) BDRip [576p] iPad


    • Комментарии (0):

      Информация

      Информация

        Посетители, находящиеся в группе Гости, не могут оставлять комментарии в данной новости.

        ↓ Меню




        ↓ Опрос

        Вы добавили сайт в закладки?
        Да
        Нет


        Top 10 за месяц (КПК и мобильные)