.
Авторизация | Регистрация
Хочешь лучшие торренты? Добавь свой email!
Добавить

Торрент скачать бесплатно

» » Война против всех / War on Everyone (2016) HDRip [H.264] [MP4|1920x804] торрент скачать бесплатно




    Война против всех / War on Everyone (2016) HDRip [H.264] [MP4|1920x804] торрент скачать бесплатно

    Опубликовал: Админ | Дата: 1-12-2017, 05:01 | Просмотров: 0

    Производство: Великобритания, Head Gear Films, Kreo Films FZ, Metrol Technology
    Жанр: Комедия, Криминал
    Режиссер: Джон Майкл МакДона
    Продюсер: Крис Кларк, Флора Фернандес-Маренго, Фил Хант
    Актеры: Александр Скарсгард, Майкл Пенья, Тесса Томпсон, Тео Джеймс, Стефани Сигман, Малкольм Баррет, Тейт Флетчер, Калеб Лэндри Джонс, Пол Райзер, Кит Джардин

    Описание

    Двое коррумпированных копов-отморозков из Нью-Мексико прессуют всех, кто попадается им под руку... или под колеса авто. Судьба подкидывает им шанс срубить целый миллион долларов, но на смачный куш также претендует эксцентричный английский лорд не без странных пристрастий. В борьбе за заслуженный улов напарники случайно узнают о стрёмных секретах красавчика-лорда и впрягаются нести возмездие. Плохим копам не терпится попробовать нечто совсем новое — борьбу за справедливость... ну, за то, как они понимают справедливость.

    Возраст: 18+ (зрителям, достигшим 18 лет. запрещено для детей)
    Рейтинг MPAA: R (лицам до 17 лет обязательно присутствие взрослого)
    Дата мировой премьеры: 12 февраля 2016
    Дата российской премьеры: 3 ноября 2016, Артхаус
    Продолжительность: 01: 37: 53
    Качество видео: HDRip
    Перевод: Дублированный (Лицензия BD RUS)
    Субтитры: Русские (форсированные, полные), Английские (полные)
    Видео: AVC/H.264, 1920x804, ~1575 Kbps
    Аудио: AC3, 6 ch, 384 kbps

    Общее
    Полное имя : E: DownloadВойна против всех 2016 1080p.mp4
    Формат : MPEG-4
    Профиль формата : Base Media
    Идентификатор кодека : isom (isom/avc1/iso6)
    Размер файла : 1, 34 Гбайт
    Продолжительность : 1 ч. 37 м.
    Режим общего битрейта : Переменный
    Общий поток : 1962 Кбит/сек
    Дата кодирования : UTC 2017-11-28 06: 41: 10
    Дата пометки : UTC 2017-11-28 06: 41: 10
    Видео
    Идентификатор : 1
    Формат : AVC
    Формат/Информация : Advanced Video Codec
    Профиль формата : High@L4
    Настройки формата : CABAC/2 Ref Frames
    Параметр CABAC формата : Да
    Параметр RefFrames формата : 2 кадра
    Идентификатор кодека : avc1
    Идентификатор кодека/Информация : Advanced Video Coding
    Продолжительность : 1 ч. 37 м.
    Битрейт : 1575 Кбит/сек
    Максимальный битрейт : 8342 Кбит/сек
    Ширина : 1920 пикселей
    Высота : 804 пикселя
    Соотношение сторон : 2, 40: 1
    Режим частоты кадров : Постоянный
    Частота кадров : 24, 000 кадра/сек
    Цветовое пространство : YUV
    Субдискретизация насыщенности : 4: 2: 0
    Битовая глубина : 8 бит
    Тип развёртки : Прогрессивная
    Бит/(Пиксели*Кадры) : 0.043
    Размер потока : 1, 08 Гбайт (80%)
    Дата кодирования : UTC 2017-11-28 06: 41: 10
    Дата пометки : UTC 2017-11-28 06: 42: 34
    Цветовой диапазон : Limited
    Основные цвета : BT.709
    Характеристики трансфера : BT.709
    Коэффициенты матрицы : BT.709
    Аудио
    Идентификатор : 2
    Формат : AC-3
    Формат/Информация : Audio Coding 3
    Параметр Endianness формата : Big
    Идентификатор кодека : ac-3
    Продолжительность : 1 ч. 37 м.
    Вид битрейта : Постоянный
    Битрейт : 384 Кбит/сек
    Максимальный битрейт : 406 Кбит/сек
    Каналы : 6 каналов
    Расположение каналов : Front: L C R, Side: L R, LFE
    Частота : 48, 0 КГц
    Частота кадров : 31, 250 кадров/сек (1536 SPF)
    Битовая глубина : 16 бит
    Метод сжатия : С потерями
    Размер потока : 269 Мбайт (20%)
    Заголовок : Дублированный (Лицензия BD RUS)
    Язык : Russian
    ServiceKind/String : Complete Main
    Дата кодирования : UTC 2017-11-28 06: 42: 13
    Дата пометки : UTC 2017-11-28 06: 42: 34
    Текст #1
    Идентификатор : 3
    Формат : Timed Text
    Идентификатор кодека : tx3g
    Продолжительность : 1 ч. 16 м.
    Вид битрейта : Переменный
    Битрейт : 1 бит/сек
    Размер потока : 642 байт (0%)
    Заголовок : Forced
    Язык : Russian
    Forced : Нет
    Дата кодирования : UTC 2017-11-28 06: 42: 34
    Дата пометки : UTC 2017-11-28 06: 42: 34
    Текст #2
    Идентификатор : 4
    Формат : Timed Text
    Идентификатор кодека : tx3g
    Продолжительность : 1 ч. 33 м.
    Вид битрейта : Переменный
    Битрейт : 98 бит/сек
    Размер потока : 67, 2 Кбайт (0%)
    Заголовок : Full
    Язык : Russian
    Forced : Нет
    Дата кодирования : UTC 2017-11-28 06: 42: 34
    Дата пометки : UTC 2017-11-28 06: 42: 34
    Текст #3
    Идентификатор : 5
    Формат : Timed Text
    Идентификатор кодека : tx3g
    Продолжительность : 1 ч. 33 м.
    Вид битрейта : Переменный
    Битрейт : 74 бит/сек
    Размер потока : 50, 8 Кбайт (0%)
    Заголовок : Full
    Язык : English
    Forced : Нет
    Дата кодирования : UTC 2017-11-28 06: 42: 34
    Дата пометки : UTC 2017-11-28 06: 42: 34
    Скриншоты:


    Все одноименные релизы в Клубе
    Время раздачи: с 9: 00 до 21: 00 (до появления первых 3-5 скачавших)


    Война против всех/War on Everyone (2016) HDRip [H.264] [MP4|1920x804]
    загрузка...
    Рейтинг →
     (голосов: 1, оценка 3/5, голосовать можно 1 раз )

    Другие торренты по теме:

  • Структура Момента. Информационная война против России (09.02.2016) SATRip
  • Война против всех / War on Everyone (2016) WEB-DLRip [AVO]
  • Война против всех / War on Everyone (2016) WEB-DL [H.264 / 1080p-LQ] [Line]
  • Война против всех / War on Everyone (2016) WEB-DLRip [Line]
  • Война против всех / War on Everyone (2016) WEB-DL [H.264 / 720p-LQ] [EN / RU Sub]
  • Война против всех / War on Everyone (2016) WEB-DLRip [AVO]
  • Война против всех / War on Everyone (2016) WEB-DLRip [H.264] [MP4|1024x424]
  • Война против всех / War on Everyone (2016) WEB-DL [H.264 / 1080p-LQ]


    • Комментарии (0):

      Информация

      Информация

        Посетители, находящиеся в группе Гости, не могут оставлять комментарии в данной новости.

        ↓ Меню




        ↓ Опрос

        Вы добавили сайт в закладки?
        Да
        Нет


        Top 10 за месяц (КПК и мобильные)