.
Авторизация | Регистрация
Хочешь лучшие торренты? Добавь свой email!
Добавить

Торрент скачать бесплатно

» » Крутые меры / Bastille Day (2016) HDRip [H.264] [MP4|1920x804] торрент скачать бесплатно




    Крутые меры / Bastille Day (2016) HDRip [H.264] [MP4|1920x804] торрент скачать бесплатно

    Опубликовал: Админ | Дата: 30-11-2017, 05:00 | Просмотров: 0

    Производство: США, Великобритания, Франция/Studio Canal, Vendome Pictures
    Жанр: Боевик, Триллер, Криминал, Драма
    Режиссер: Джеймс Уоткинс
    Продюсер: Бард Доррос, Фабрис Джанферми, Стив Голин
    Актеры: Идрис Эльба, Ричард Мэдден, Келли Райлли, Шарлотта Ле Бон, Анатол Юсеф, Хосе Гарсия, Стефани Кайлар, Лаура Хидари, Хорхе Леон Мартинес, Эрик Эбони

    Описание

    Ловкий карманник Майкл Мэйсон привлекает внимание полиции и спецслужб, когда крадет сумку, содержащую гораздо больше, чем просто бумажник. На его след выходит дерзкий и резкий спецагент ЦРУ Шон Брайар. Вдвоем они становятся мишенью тайной преступной организации и в течение суток должны вывести злоумышленников на чистую воду.

    Возраст: 16+ (зрителям, достигшим 16 лет)
    Рейтинг MPAA: R (лицам до 17 лет обязательно присутствие взрослого)
    Дата мировой премьеры: 20 апреля 2016
    Дата российской премьеры: 28 июля 2016
    Продолжительность: 01: 32: 01
    Качество видео: HDRip
    Перевод: Дублированный (Лицензия BD RUS)
    Субтитры: Отсутствуют
    Видео: AVC/H.264, 1920x804, ~1877 Kbps
    Аудио: AC3, 6 ch, 384 kbps

    Общее
    Полное имя : E: DownloadКрутые меры 2016 1080p.mp4
    Формат : MPEG-4
    Профиль формата : Base Media
    Идентификатор кодека : isom (isom/avc1/iso6)
    Размер файла : 1, 45 Гбайт
    Продолжительность : 1 ч. 32 м.
    Общий поток : 2262 Кбит/сек
    Дата кодирования : UTC 2017-11-29 06: 59: 30
    Дата пометки : UTC 2017-11-29 06: 59: 30
    Видео
    Идентификатор : 1
    Формат : AVC
    Формат/Информация : Advanced Video Codec
    Профиль формата : High@L4
    Настройки формата : CABAC/2 Ref Frames
    Параметр CABAC формата : Да
    Параметр RefFrames формата : 2 кадра
    Идентификатор кодека : avc1
    Идентификатор кодека/Информация : Advanced Video Coding
    Продолжительность : 1 ч. 32 м.
    Битрейт : 1877 Кбит/сек
    Максимальный битрейт : 7173 Кбит/сек
    Ширина : 1920 пикселей
    Высота : 804 пикселя
    Соотношение сторон : 2, 40: 1
    Режим частоты кадров : Постоянный
    Частота кадров : 24, 000 кадра/сек
    Цветовое пространство : YUV
    Субдискретизация насыщенности : 4: 2: 0
    Битовая глубина : 8 бит
    Тип развёртки : Прогрессивная
    Бит/(Пиксели*Кадры) : 0.051
    Размер потока : 1, 21 Гбайт (83%)
    Дата кодирования : UTC 2017-11-29 06: 59: 30
    Дата пометки : UTC 2017-11-29 07: 00: 39
    Цветовой диапазон : Limited
    Основные цвета : BT.709
    Характеристики трансфера : BT.709
    Коэффициенты матрицы : BT.709
    Аудио
    Идентификатор : 2
    Формат : AC-3
    Формат/Информация : Audio Coding 3
    Параметр Endianness формата : Big
    Идентификатор кодека : ac-3
    Продолжительность : 1 ч. 31 м.
    Вид битрейта : Постоянный
    Битрейт : 384 Кбит/сек
    Максимальный битрейт : 406 Кбит/сек
    Каналы : 6 каналов
    Расположение каналов : Front: L C R, Side: L R, LFE
    Частота : 48, 0 КГц
    Частота кадров : 31, 250 кадров/сек (1536 SPF)
    Битовая глубина : 16 бит
    Метод сжатия : С потерями
    Размер потока : 252 Мбайт (17%)
    Заголовок : Дублированный (Лицензия BD RUS)
    Язык : Russian
    ServiceKind/String : Complete Main
    Дата кодирования : UTC 2017-11-29 07: 00: 23
    Дата пометки : UTC 2017-11-29 07: 00: 39
    Скриншоты:


    Все одноименные релизы в Клубе
    Время раздачи: с 9: 00 до 21: 00 (до появления первых 3-5 скачавших)


    Крутые меры/Bastille Day (2016) HDRip [H.264] [MP4|1920x804]
    загрузка...
    Рейтинг →
     (голосов: 1, оценка 5/5, голосовать можно 1 раз )

    Другие торренты по теме:

  • Крутые меры / Bastille Day (2016) BDRip [H.264 / 720p] [EN / EN Sub]
  • Крутые меры / Bastille Day (2016) WEB-DL [H.264 / 720p-LQ] [EN / EN Sub]
  • Крутые меры / Bastille Day (2016) BDRip [H.264 / 1080p] [EN / EN Sub]
  • Крутые меры / Bastille Day (2016) HDRip
  • Крутые меры / Bastille Day (2016) WEB-DL [H.264 / 720p-LQ] [VO]
  • Крутые меры / Bastille Day (2016) BDRip [H.264 / 1080p]
  • Крутые меры / Bastille Day (2016) BDRemux [H.264 / 1080p] [EN / EN Sub]
  • Крутые меры / Bastille Day (2016) HDRip


    • Комментарии (0):

      Информация

      Информация

        Посетители, находящиеся в группе Гости, не могут оставлять комментарии в данной новости.

        ↓ Меню




        ↓ Опрос

        Вы добавили сайт в закладки?
        Да
        Нет


        Top 10 за месяц (КПК и мобильные)