.
Авторизация | Регистрация
Хочешь лучшие торренты? Добавь свой email!
Добавить

Торрент скачать бесплатно

» » Крутые меры / Bastille Day (2016) HDRip [H.264] [MP4|1280x536] торрент скачать бесплатно




    Крутые меры / Bastille Day (2016) HDRip [H.264] [MP4|1280x536] торрент скачать бесплатно

    Опубликовал: Админ | Дата: 30-11-2017, 05:00 | Просмотров: 0

    Производство: США, Великобритания, Франция/Studio Canal, Vendome Pictures
    Жанр: Боевик, Триллер, Криминал, Драма
    Режиссер: Джеймс Уоткинс
    Продюсер: Бард Доррос, Фабрис Джанферми, Стив Голин
    Актеры: Идрис Эльба, Ричард Мэдден, Келли Райлли, Шарлотта Ле Бон, Анатол Юсеф, Хосе Гарсия, Стефани Кайлар, Лаура Хидари, Хорхе Леон Мартинес, Эрик Эбони

    Описание

    Ловкий карманник Майкл Мэйсон привлекает внимание полиции и спецслужб, когда крадет сумку, содержащую гораздо больше, чем просто бумажник. На его след выходит дерзкий и резкий спецагент ЦРУ Шон Брайар. Вдвоем они становятся мишенью тайной преступной организации и в течение суток должны вывести злоумышленников на чистую воду.

    Возраст: 16+ (зрителям, достигшим 16 лет)
    Рейтинг MPAA: R (лицам до 17 лет обязательно присутствие взрослого)
    Дата мировой премьеры: 20 апреля 2016
    Дата российской премьеры: 28 июля 2016
    Продолжительность: 01: 32: 01
    Качество видео: HDRip
    Перевод: Дублированный (Лицензия BD RUS)
    Субтитры: Отсутствуют
    Видео: AVC/H.264, 1280x536, ~1181 Kbps
    Аудио: AAC, 2 ch, ~129 kbps

    Общее
    Полное имя : E: DownloadКрутые меры 2016 720p.mp4
    Формат : MPEG-4
    Профиль формата : Base Media
    Идентификатор кодека : isom (isom/avc1)
    Размер файла : 864 Мбайт
    Продолжительность : 1 ч. 32 м.
    Режим общего битрейта : Переменный
    Общий поток : 1312 Кбит/сек
    Дата кодирования : UTC 2017-11-29 07: 22: 42
    Дата пометки : UTC 2017-11-29 07: 22: 42
    Видео
    Идентификатор : 1
    Формат : AVC
    Формат/Информация : Advanced Video Codec
    Профиль формата : High@L3.1
    Настройки формата : CABAC/1 Ref Frames
    Параметр CABAC формата : Да
    Параметр RefFrames формата : 1 кадр
    Идентификатор кодека : avc1
    Идентификатор кодека/Информация : Advanced Video Coding
    Продолжительность : 1 ч. 32 м.
    Битрейт : 1181 Кбит/сек
    Максимальный битрейт : 5178 Кбит/сек
    Ширина : 1280 пикселей
    Высота : 536 пикселей
    Соотношение сторон : 2, 40: 1
    Режим частоты кадров : Постоянный
    Частота кадров : 24, 000 кадра/сек
    Цветовое пространство : YUV
    Субдискретизация насыщенности : 4: 2: 0
    Битовая глубина : 8 бит
    Тип развёртки : Прогрессивная
    Бит/(Пиксели*Кадры) : 0.072
    Размер потока : 777 Мбайт (90%)
    Дата кодирования : UTC 2017-11-29 07: 22: 42
    Дата пометки : UTC 2017-11-29 07: 23: 30
    Цветовой диапазон : Limited
    Основные цвета : BT.709
    Характеристики трансфера : BT.709
    Коэффициенты матрицы : BT.709
    Аудио
    Идентификатор : 2
    Формат : AAC
    Формат/Информация : Advanced Audio Codec
    Профиль формата : Main
    Идентификатор кодека : mp4a-40-1
    Продолжительность : 1 ч. 31 м.
    Вид битрейта : Переменный
    Битрейт : 129 Кбит/сек
    Максимальный битрейт : 138 Кбит/сек
    Каналы : 2 канала
    Расположение каналов : Front: L R
    Частота : 48, 0 КГц
    Частота кадров : 46, 875 кадров/сек (1024 SPF)
    Метод сжатия : С потерями
    Размер потока : 84, 5 Мбайт (10%)
    Заголовок : Дублированный (Лицензия BD RUS)
    Язык : Russian
    Дата кодирования : UTC 2017-11-29 07: 23: 19
    Дата пометки : UTC 2017-11-29 07: 23: 30
    Скриншоты:


    Все одноименные релизы в Клубе
    Время раздачи: с 9: 00 до 21: 00 (до появления первых 3-5 скачавших)


    Крутые меры/Bastille Day (2016) HDRip [H.264] [MP4|1280x536]
    загрузка...
    Рейтинг →
     (голосов: 1, оценка 4/5, голосовать можно 1 раз )

    Другие торренты по теме:

  • Крутые меры / Bastille Day (2016) BDRip [H.264 / 720p] [EN / EN Sub]
  • Крутые меры / Bastille Day (2016) WEB-DL [H.264 / 720p-LQ] [EN / EN Sub]
  • Крутые меры / Bastille Day (2016) BDRip [H.264 / 1080p] [EN / EN Sub]
  • Крутые меры / Bastille Day (2016) HDRip
  • Крутые меры / Bastille Day (2016) WEB-DL [H.264 / 720p-LQ] [VO]
  • Крутые меры / Bastille Day (2016) BDRip [H.264 / 1080p]
  • Крутые меры / Bastille Day (2016) BDRemux [H.264 / 1080p] [EN / EN Sub]
  • Крутые меры / Bastille Day (2016) HDRip


    • Комментарии (0):

      Информация

      Информация

        Посетители, находящиеся в группе Гости, не могут оставлять комментарии в данной новости.

        ↓ Меню




        ↓ Опрос

        Вы добавили сайт в закладки?
        Да
        Нет


        Top 10 за месяц (КПК и мобильные)