.
Авторизация | Регистрация
Хочешь лучшие торренты? Добавь свой email!
Добавить

Торрент скачать бесплатно

» » Приключения Шерлока Холмса и доктора Ватсона: Собака Баскервилей (1981) WEB-DLRip [H.264] [MP4|1920x1080] торрент скачать бесплатно




    Приключения Шерлока Холмса и доктора Ватсона: Собака Баскервилей (1981) WEB-DLRip [H.264] [MP4|1920x1080] торрент скачать бесплатно

    Опубликовал: Админ | Дата: 28-11-2017, 05:00 | Просмотров: 0

    Производство: СССР
    Жанр: Криминал, детектив
    Режиссер: Игорь Масленников
    Актеры: Василий Ливанов, Виталий Соломин, Рина Зеленая, Ирина Купченко, Никита Михалков, Алла Демидова, Светлана Крючкова, Александр Адабашьян, Борислав Брондуков, Евгений Стеблов

    Описание

    Труп Чарльза Баскервиля обнаруживают неподалеку от его родового поместья. Выражение нечеловеческого ужаса на лице покойника и следы крупной собаки поблизости заставляют вспомнить старинную легенду о проклятии, тяготеющем над родом Баскервилей. Шерлоку Холмсу предстоит докопаться до истины…

    Возраст: 0+ (для любой зрительской аудитории)
    Релиз от: Алехаndr
    Продолжительность: 02: 26: 10
    Качество видео: WEB-DLRip
    Субтитры: Отсутствуют
    Видео: AVC/H.264, 1920x1080 (16: 9), ~3160 Kbps
    Аудио: AAC, 2 ch, 126 Kbps

    Общее
    Полное имя : D: Приключения Шерлока Холмса и доктора Ватсона (Собака Баскервилей) (1981).by.Алехаndr.mp4
    Формат : MPEG-4
    Профиль формата : Base Media
    Идентификатор кодека : isom (isom/iso2/avc1/mp41)
    Размер файла : 3, 36 Гбайт
    Продолжительность : 2 ч. 26 м.
    Режим общего битрейта : Переменный
    Общий поток : 3291 Кбит/сек
    Программа кодирования : Lavf57.71.100
    Видео
    Идентификатор : 1
    Формат : AVC
    Формат/Информация : Advanced Video Codec
    Профиль формата : High@L4
    Настройки формата : CABAC/2 Ref Frames
    Параметр CABAC формата : Да
    Параметр RefFrames формата : 2 кадра
    Идентификатор кодека : avc1
    Идентификатор кодека/Информация : Advanced Video Coding
    Продолжительность : 2 ч. 26 м.
    Битрейт : 3159 Кбит/сек
    Ширина : 1920 пикселей
    Высота : 1080 пикселей
    Соотношение сторон : 16: 9
    Режим частоты кадров : Постоянный
    Частота кадров : 25, 000 кадров/сек
    Цветовое пространство : YUV
    Субдискретизация насыщенности : 4: 2: 0
    Битовая глубина : 8 бит
    Тип развёртки : Прогрессивная
    Бит/(Пиксели*Кадры) : 0.061
    Размер потока : 3, 23 Гбайт (96%)
    Цветовой диапазон : Limited
    Основные цвета : BT.709
    Характеристики трансфера : BT.709
    Коэффициенты матрицы : BT.709
    Аудио
    Идентификатор : 2
    Формат : AAC
    Формат/Информация : Advanced Audio Codec
    Профиль формата : LC
    Идентификатор кодека : mp4a-40-2
    Продолжительность : 2 ч. 26 м.
    Вид битрейта : Переменный
    Битрейт : 126 Кбит/сек
    Максимальный битрейт : 128 Кбит/сек
    Каналы : 2 канала
    Расположение каналов : Front: L R
    Частота : 44, 1 КГц
    Частота кадров : 43, 066 кадра/сек (1024 SPF)
    Метод сжатия : С потерями
    Размер потока : 131 Мбайт (4%)
    Язык : Russian
    Default : Да
    AlternateGroup/String : 1
    Скриншоты:


    Все одноименные релизы в Клубе
    Время раздачи: 24/7 (круглосуточно) (до появления первых 3-5 скачавших)


    Приключения Шерлока Холмса и доктора Ватсона: Собака Баскервилей (1981) WEB-DLRip [H.264] [MP4|1920x1080]
    загрузка...
    Рейтинг →
     (голосов: 1, оценка 3/5, голосовать можно 1 раз )

    Другие торренты по теме:

  • Приключения Шерлока Холмса и доктора Ватсона: Собака Баскервилей (1981) BDRip [1080p] [hand made 60 fps]
  • Приключения Шерлока Холмса и доктора Ватсона (1979-1986) DVDRip [H.264]
  • Приключения Шерлока Холмса и доктора Ватсона (1979-1986) DVDRip скачать через торрент бесплатно
  • Приключения Шерлока Холмса и доктора Ватсона: Собака Баскервилей (1981) BDRip [H.265 / 1080p-LQ]
  • Приключения хитроумного брата Шерлока Холмса / The Adventure of Sherlock Holmes Smarter Brother (1975) DVD9 скачать через торрент бесплатно
  • Приключения хитроумного брата Шерлока Холмса / The Adventure of Sherlock Holmes Smarter Brother (1975) HDTV [H.264 / 1080i]


    • Комментарии (0):

      Информация

      Информация

        Посетители, находящиеся в группе Гости, не могут оставлять комментарии в данной новости.

        ↓ Меню




        ↓ Опрос

        Вы добавили сайт в закладки?
        Да
        Нет


        Top 10 за месяц (КПК и мобильные)