.
Авторизация | Регистрация
Хочешь лучшие торренты? Добавь свой email!
Добавить

Торрент скачать бесплатно

» » Валериан и город тысячи планет / Valerian and the City of a Thousand Planets (2017) HDRip [H.264] [MP4|1280x536] торрент скачать бесплатно




    Валериан и город тысячи планет / Valerian and the City of a Thousand Planets (2017) HDRip [H.264] [MP4|1280x536] торрент скачать бесплатно

    Опубликовал: Админ | Дата: 28-11-2017, 05:00 | Просмотров: 0

    Производство: Франция, EuropaCorp, Fundamental Films, Grive Productions
    Жанр: Фантастика, Фэнтези, Боевик, Приключения
    Режиссер: Люк Бессон
    Продюсер: Люк Бессон, Виржини Силла
    Актеры: Дэйн ДеХаан, Кара Делевинь, Клайв Оуэн, Рианна, Итэн Хоук, Херби Хэнкок, Крис У, Сэм Спруэлл, Ален Шаба, Рутгер Хауэр

    Описание

    2700 год. Валериан и Лорелин — космические спецагенты, которые по долгу службы впутались в подозрительное дело и стали невольными участниками то ли межгалактического заговора, то ли аферы причудливых поселенцев планеты Альфа, прибывших туда из различных миров со всех уголков галактик.

    Возраст: 12+ (зрителям, достигшим 12 лет)
    Рейтинг MPAA: PG-13 (детям до 13 лет просмотр нежелателен)
    Дата мировой премьеры: 17 июля 2017
    Дата российской премьеры: 10 августа 2017
    Продолжительность: 02: 17: 03
    Качество видео: HDRip
    Перевод: Дублированный (IPTV)
    Субтитры: Русские (форсированные, полные), Английские (форсированные, полные)
    Видео: AVC/H.264, 1280x536, ~1340 Kbps
    Аудио: AAC, 2 ch, ~128 kbps

    Общее
    Полное имя : E: DownloadВалериан и город тысячи планет 720p.mp4
    Формат : MPEG-4
    Профиль формата : Base Media
    Идентификатор кодека : isom (isom/avc1)
    Размер файла : 1, 41 Гбайт
    Продолжительность : 2 ч. 17 м.
    Режим общего битрейта : Переменный
    Общий поток : 1472 Кбит/сек
    Дата кодирования : UTC 2017-11-27 07: 53: 10
    Дата пометки : UTC 2017-11-27 07: 53: 10
    Видео
    Идентификатор : 1
    Формат : AVC
    Формат/Информация : Advanced Video Codec
    Профиль формата : High@L3.1
    Настройки формата : CABAC/1 Ref Frames
    Параметр CABAC формата : Да
    Параметр RefFrames формата : 1 кадр
    Идентификатор кодека : avc1
    Идентификатор кодека/Информация : Advanced Video Coding
    Продолжительность : 2 ч. 17 м.
    Битрейт : 1340 Кбит/сек
    Максимальный битрейт : 5602 Кбит/сек
    Ширина : 1280 пикселей
    Высота : 536 пикселей
    Соотношение сторон : 2, 40: 1
    Режим частоты кадров : Постоянный
    Частота кадров : 23, 976 (24000/1001) кадра/сек
    Цветовое пространство : YUV
    Субдискретизация насыщенности : 4: 2: 0
    Битовая глубина : 8 бит
    Тип развёртки : Прогрессивная
    Бит/(Пиксели*Кадры) : 0.081
    Размер потока : 1, 28 Гбайт (91%)
    Дата кодирования : UTC 2017-11-27 07: 53: 10
    Дата пометки : UTC 2017-11-27 07: 55: 14
    Цветовой диапазон : Limited
    Основные цвета : BT.709
    Характеристики трансфера : BT.709
    Коэффициенты матрицы : BT.709
    Аудио
    Идентификатор : 2
    Формат : AAC
    Формат/Информация : Advanced Audio Codec
    Профиль формата : LC
    Идентификатор кодека : mp4a-40-2
    Продолжительность : 2 ч. 17 м.
    Вид битрейта : Переменный
    Битрейт : 128 Кбит/сек
    Максимальный битрейт : 133 Кбит/сек
    Каналы : 2 канала
    Расположение каналов : Front: L R
    Частота : 48, 0 КГц
    Частота кадров : 46, 875 кадров/сек (1024 SPF)
    Метод сжатия : С потерями
    Размер потока : 126 Мбайт (9%)
    Заголовок : Дублированный (IPTV)
    Язык : Russian
    Дата кодирования : UTC 2017-11-27 07: 54: 59
    Дата пометки : UTC 2017-11-27 07: 55: 14
    Текст #1
    Идентификатор : 3
    Формат : Timed Text
    Идентификатор кодека : tx3g
    Продолжительность : 2 ч. 10 м.
    Вид битрейта : Переменный
    Битрейт : 1 бит/сек
    Размер потока : 1, 05 Кбайт (0%)
    Заголовок : Forced
    Язык : Russian
    Forced : Нет
    Дата кодирования : UTC 2017-11-27 07: 55: 14
    Дата пометки : UTC 2017-11-27 07: 55: 14
    Текст #2
    Идентификатор : 4
    Формат : Timed Text
    Идентификатор кодека : tx3g
    Продолжительность : 2 ч. 10 м.
    Вид битрейта : Переменный
    Битрейт : 91 бит/сек
    Размер потока : 86, 9 Кбайт (0%)
    Заголовок : Full
    Язык : Russian
    Forced : Нет
    Дата кодирования : UTC 2017-11-27 07: 55: 14
    Дата пометки : UTC 2017-11-27 07: 55: 14
    Текст #3
    Идентификатор : 5
    Формат : Timed Text
    Идентификатор кодека : tx3g
    Продолжительность : 12 м. 23 с.
    Вид битрейта : Переменный
    Битрейт : 2 бит/сек
    Размер потока : 221 байт (0%)
    Заголовок : Forced
    Язык : English
    Forced : Нет
    Дата кодирования : UTC 2017-11-27 07: 55: 14
    Дата пометки : UTC 2017-11-27 07: 55: 14
    Текст #4
    Идентификатор : 6
    Формат : Timed Text
    Идентификатор кодека : tx3g
    Продолжительность : 2 ч. 9 м.
    Вид битрейта : Переменный
    Битрейт : 60 бит/сек
    Размер потока : 56, 9 Кбайт (0%)
    Заголовок : Full
    Язык : English
    Forced : Нет
    Дата кодирования : UTC 2017-11-27 07: 55: 14
    Дата пометки : UTC 2017-11-27 07: 55: 14
    Скриншоты:


    Все одноименные релизы в Клубе
    Время раздачи: с 9: 00 до 21: 00 (до появления первых 3-5 скачавших)


    Валериан и город тысячи планет/Valerian and the City of a Thousand Planets (2017) HDRip [H.264] [MP4|1280x536]
    загрузка...
    Рейтинг →
     (голосов: 1, оценка 3/5, голосовать можно 1 раз )

    Другие торренты по теме:

  • Валериан и город тысячи планет / Valerian and the City of a Thousand Planets (2017) WEBRip [EN] [Тизер]
  • Валериан и город тысячи планет / Valerian and the City of a Thousand Planets (2017) TS [MVO] [AD]
  • Валериан и город тысячи планет / Valerian and the City of a Thousand Planets (2017) TS [H.264 / 720p-LQ] [AD]
  • Кристи Голден | Валериан и Город Тысячи Планет (2017) [FB2]
  • Валериан и город тысячи планет / Valerian and the City of a Thousand Planets (2017) WEBRip [H.264 / 720p-LQ] [EN / KOR Sub]
  • Валериан и город тысячи планет / Valerian and the City of a Thousand Planets (2017) WEB-DLRip [MVO] [AD]
  • Валериан и город тысячи планет / Valerian and the City of a Thousand Planets (2017) WEB-DLRip [H.264 / 1080p-LQ] [MVO] [AD]
  • Валериан и город тысячи планет / Valerian and the City of a Thousand Planets (2017) WEB-DL [H.264 / 1080p-LQ] [EN / EN Sub]


    • Комментарии (0):

      Информация

      Информация

        Посетители, находящиеся в группе Гости, не могут оставлять комментарии в данной новости.

        ↓ Меню




        ↓ Опрос

        Вы добавили сайт в закладки?
        Да
        Нет


        Top 10 за месяц (КПК и мобильные)