.
Авторизация | Регистрация
Хочешь лучшие торренты? Добавь свой email!
Добавить

Торрент скачать бесплатно

» » Миссия невыполнима: Племя изгоев / Mission: Impossible - Rogue Nation (2015) HDRip [H.264] [MP4|1920x804] торрент скачать бесплатно




    Миссия невыполнима: Племя изгоев / Mission: Impossible - Rogue Nation (2015) HDRip [H.264] [MP4|1920x804] торрент скачать бесплатно

    Опубликовал: Админ | Дата: 27-11-2017, 05:00 | Просмотров: 0

    Производство: США, Китай/Paramount Pictures, Skydance Productions, Bad Robot
    Жанр: Боевик, Триллер, Приключения
    Режиссер: Кристофер МакКуорри
    Продюсер: Джей Джей Абрамс, Брайан Берк, Том Круз
    Актеры: Том Круз, Джереми Реннер, Саймон Пегг, Алек Болдуин, Ребекка Фергюсон, Винг Реймз, Шон Харрис, Америка Оливо, Саймон МакБерни, Чжан Цзинчу

    Описание

    Когда ОМН распускают, и Итан Хант остается не у дел, его команда неожиданно сталкивается с разветвленной международной сетью высокопрофессиональных спецагентов — Синдикатом. Это племя изгоев одержимо идеей установления нового мирового порядка и планирует серию разрушительных терактов. Итан и компания объединяются с дискредитированным британским агентом Илсой Фауст и приступают к своей самой невыполнимой миссии, понимая, что каждый из них может оказаться на стороне Синдиката.

    Возраст: 16+ (зрителям, достигшим 16 лет)
    Рейтинг MPAA: PG-13 (детям до 13 лет просмотр нежелателен)
    Дата мировой премьеры: 23 июля 2015
    Дата российской премьеры: 6 августа 2015, Централ Партнершип
    Продолжительность: 02: 11: 33
    Качество видео: HDRip
    Перевод: Дублированный (Лицензия BD CEE)
    Субтитры: Русские (форсированные, полные), Английские (форсированные, полные)
    Видео: AVC/H.264, 1920x804, ~2146 Kbps
    Аудио: AC3, 6 ch, 384 kbps

    Общее
    Полное имя : E: DownloadМиссия невыполнима Племя изгоев 2015 1080p.mp4
    Формат : MPEG-4
    Профиль формата : Base Media
    Идентификатор кодека : isom (isom/avc1/iso6)
    Размер файла : 2, 33 Гбайт
    Продолжительность : 2 ч. 11 м.
    Режим общего битрейта : Переменный
    Общий поток : 2532 Кбит/сек
    Дата кодирования : UTC 2017-11-26 06: 40: 09
    Дата пометки : UTC 2017-11-26 06: 40: 09
    Видео
    Идентификатор : 1
    Формат : AVC
    Формат/Информация : Advanced Video Codec
    Профиль формата : High@L4
    Настройки формата : CABAC/2 Ref Frames
    Параметр CABAC формата : Да
    Параметр RefFrames формата : 2 кадра
    Идентификатор кодека : avc1
    Идентификатор кодека/Информация : Advanced Video Coding
    Продолжительность : 2 ч. 11 м.
    Битрейт : 2146 Кбит/сек
    Максимальный битрейт : 7423 Кбит/сек
    Ширина : 1920 пикселей
    Высота : 804 пикселя
    Соотношение сторон : 2, 40: 1
    Режим частоты кадров : Постоянный
    Частота кадров : 23, 976 (24000/1001) кадра/сек
    Цветовое пространство : YUV
    Субдискретизация насыщенности : 4: 2: 0
    Битовая глубина : 8 бит
    Тип развёртки : Прогрессивная
    Бит/(Пиксели*Кадры) : 0.058
    Размер потока : 1, 97 Гбайт (85%)
    Дата кодирования : UTC 2017-11-26 06: 40: 09
    Дата пометки : UTC 2017-11-26 06: 42: 23
    Цветовой диапазон : Limited
    Основные цвета : BT.709
    Характеристики трансфера : BT.709
    Коэффициенты матрицы : BT.709
    Аудио
    Идентификатор : 2
    Формат : AC-3
    Формат/Информация : Audio Coding 3
    Параметр Endianness формата : Big
    Идентификатор кодека : ac-3
    Продолжительность : 2 ч. 11 м.
    Вид битрейта : Постоянный
    Битрейт : 384 Кбит/сек
    Максимальный битрейт : 406 Кбит/сек
    Каналы : 6 каналов
    Расположение каналов : Front: L C R, Side: L R, LFE
    Частота : 48, 0 КГц
    Частота кадров : 31, 250 кадров/сек (1536 SPF)
    Битовая глубина : 16 бит
    Метод сжатия : С потерями
    Размер потока : 361 Мбайт (15%)
    Заголовок : Дублированный (Лицензия BD CEE)
    Язык : Russian
    ServiceKind/String : Complete Main
    Дата кодирования : UTC 2017-11-26 06: 41: 49
    Дата пометки : UTC 2017-11-26 06: 42: 23
    Текст #1
    Идентификатор : 3
    Формат : Timed Text
    Идентификатор кодека : tx3g
    Продолжительность : 1 ч. 58 м.
    Вид битрейта : Переменный
    Битрейт : 3 бит/сек
    Размер потока : 2, 26 Кбайт (0%)
    Заголовок : Forced
    Язык : Russian
    Forced : Нет
    Дата кодирования : UTC 2017-11-26 06: 42: 23
    Дата пометки : UTC 2017-11-26 06: 42: 23
    Текст #2
    Идентификатор : 4
    Формат : Timed Text
    Идентификатор кодека : tx3g
    Продолжительность : 2 ч. 4 м.
    Вид битрейта : Переменный
    Битрейт : 87 бит/сек
    Размер потока : 79, 6 Кбайт (0%)
    Заголовок : Full
    Язык : Russian
    Forced : Нет
    Дата кодирования : UTC 2017-11-26 06: 42: 23
    Дата пометки : UTC 2017-11-26 06: 42: 23
    Текст #3
    Идентификатор : 5
    Формат : Timed Text
    Идентификатор кодека : tx3g
    Продолжительность : 1 ч. 58 м.
    Вид битрейта : Переменный
    Битрейт : 1 бит/сек
    Размер потока : 735 байт (0%)
    Заголовок : Forced
    Язык : English
    Forced : Нет
    Дата кодирования : UTC 2017-11-26 06: 42: 23
    Дата пометки : UTC 2017-11-26 06: 42: 23
    Текст #4
    Идентификатор : 6
    Формат : Timed Text
    Идентификатор кодека : tx3g
    Продолжительность : 2 ч. 4 м.
    Вид битрейта : Переменный
    Битрейт : 52 бит/сек
    Размер потока : 47, 6 Кбайт (0%)
    Заголовок : Full
    Язык : English
    Forced : Нет
    Дата кодирования : UTC 2017-11-26 06: 42: 23
    Дата пометки : UTC 2017-11-26 06: 42: 23
    Скриншоты:


    Все одноименные релизы в Клубе
    Время раздачи: с 10: 00 до 22: 00 (до появления первых 3-5 скачавших)


    Миссия невыполнима: Племя изгоев/Mission: Impossible - Rogue Nation (2015) HDRip [H.264] [MP4|1920x804]
    загрузка...
    Рейтинг →
     (голосов: 1, оценка 3/5, голосовать можно 1 раз )

    Другие торренты по теме:

  • Миссия: невыполнима 5 / Mission: Impossible 5 (2015) WEBRip [1080p] [Трейлер] [EN] скачать через торрент бесплатно
  • Миссия невыполнима: Племя изгоев / Mission: Impossible - Rogue Nation (2015) WEBRip [1080p] [Трейлер] скачать через торрент бесплатно
  • Миссия невыполнима: Племя изгоев / Mission: Impossible - Rogue Nation (2015) WEBRip [H.264 / 1080p] [Трейлер #2] скачать через торрент бесплатно
  • Миссия невыполнима: Племя изгоев / Mission: Impossible - Rogue Nation (2015) DCPRip [2К] [Трейлер] скачать через торрент бесплатно
  • Миссия невыполнима: Племя изгоев / Mission: Impossible - Rogue Nation (2015) TS [EN] скачать через торрент бесплатно
  • Миссия невыполнима: Протокол Фантом / Mission: Impossible - Ghost Protocol (2011) HDRip [AVO] скачать через торрент бесплатно
  • Миссия невыполнима 3 / Mission: Impossible 3 (2006) HDRip [AVO] скачать через торрент бесплатно
  • Миссия невыполнима / Mission: Impossible (1996) HDRip [AVO] скачать через торрент бесплатно


    • Комментарии (0):

      Информация

      Информация

        Посетители, находящиеся в группе Гости, не могут оставлять комментарии в данной новости.

        ↓ Меню




        ↓ Опрос

        Вы добавили сайт в закладки?
        Да
        Нет


        Top 10 за месяц (КПК и мобильные)