.
Авторизация | Регистрация
Хочешь лучшие торренты? Добавь свой email!
Добавить

Торрент скачать бесплатно

» » Инферно / Inferno (2016) HDRip [H.264] [MP4|1280x694] торрент скачать бесплатно




    Инферно / Inferno (2016) HDRip [H.264] [MP4|1280x694] торрент скачать бесплатно

    Опубликовал: Админ | Дата: 26-11-2017, 05:00 | Просмотров: 0

    Производство: США, Венгрия/Columbia Pictures, Imagine Entertainment
    Жанр: Боевик, Триллер, Драма, Криминал, Детектив, Приключения
    Режиссер: Рон Ховард
    Продюсер: Брайан Грейзер, Дэн Браун, Уильям М. Коннор
    Актеры: Том Хэнкс, Фелисити Джонс, Омар Си, Ирфан Кхан, Сидсе Бабетт Кнудсен, Бен Фостер, Ана Улару, Ида Дарвиш, Фаусто Мария Шиараппа, Винченцо Танасси

    Описание

    Профессор Роберт Лэнгдон приходит в сознание в одной из итальянских больниц, полностью потеряв память. Местный врач Сиенна Брукс пытается помочь Роберту не только восстановить воспоминания, но и остановить загадочных злоумышленников, которые намерены распространить смертоносный вирус. Разгадка таинственной истории связана с Адом (ит. Inferno) - первой частью Божественной комедии Данте.

    Возраст: 16+ (зрителям, достигшим 16 лет)
    Рейтинг MPAA: PG-13 (детям до 13 лет просмотр нежелателен)
    Дата мировой премьеры: 8 октября 2016
    Дата российской премьеры: 13 октября 2016, WDSSPR
    Продолжительность: 02: 01: 35
    Качество видео: HDRip
    Перевод: Дублированный (Лицензия BD CEE)
    Субтитры: Русские (форсированные, полные), Английские (полные)
    Видео: AVC/H.264, 1280x694, ~1567 Kbps
    Аудио: AAC, 2 ch, ~129 kbps

    Общее
    Полное имя : E: DownloadИнферно 2016 720p.mp4
    Формат : MPEG-4
    Профиль формата : Base Media
    Идентификатор кодека : isom (isom/avc1)
    Размер файла : 1, 44 Гбайт
    Продолжительность : 2 ч. 1 м.
    Режим общего битрейта : Переменный
    Общий поток : 1699 Кбит/сек
    Дата кодирования : UTC 2017-11-25 06: 35: 14
    Дата пометки : UTC 2017-11-25 06: 35: 14
    Видео
    Идентификатор : 1
    Формат : AVC
    Формат/Информация : Advanced Video Codec
    Профиль формата : High@L3.1
    Настройки формата : CABAC/1 Ref Frames
    Параметр CABAC формата : Да
    Параметр RefFrames формата : 1 кадр
    Параметр GOP формата : M=1, N=60
    Идентификатор кодека : avc1
    Идентификатор кодека/Информация : Advanced Video Coding
    Продолжительность : 2 ч. 1 м.
    Битрейт : 1567 Кбит/сек
    Максимальный битрейт : 9776 Кбит/сек
    Ширина : 1280 пикселей
    Высота : 694 пикселя
    Соотношение сторон : 1, 85: 1
    Режим частоты кадров : Постоянный
    Частота кадров : 23, 976 (24000/1001) кадра/сек
    Цветовое пространство : YUV
    Субдискретизация насыщенности : 4: 2: 0
    Битовая глубина : 8 бит
    Тип развёртки : Прогрессивная
    Бит/(Пиксели*Кадры) : 0.074
    Размер потока : 1, 33 Гбайт (92%)
    Дата кодирования : UTC 2017-11-25 06: 35: 14
    Дата пометки : UTC 2017-11-25 06: 36: 53
    Цветовой диапазон : Limited
    Основные цвета : BT.709
    Характеристики трансфера : BT.709
    Коэффициенты матрицы : BT.709
    Аудио
    Идентификатор : 2
    Формат : AAC
    Формат/Информация : Advanced Audio Codec
    Профиль формата : Main
    Идентификатор кодека : mp4a-40-1
    Продолжительность : 2 ч. 1 м.
    Вид битрейта : Переменный
    Битрейт : 129 Кбит/сек
    Максимальный битрейт : 138 Кбит/сек
    Каналы : 2 канала
    Расположение каналов : Front: L R
    Частота : 48, 0 КГц
    Частота кадров : 46, 875 кадров/сек (1024 SPF)
    Метод сжатия : С потерями
    Размер потока : 112 Мбайт (8%)
    Заголовок : Дублированный (Лицензия BD CEE)
    Язык : Russian
    Дата кодирования : UTC 2017-11-25 06: 36: 41
    Дата пометки : UTC 2017-11-25 06: 36: 53
    Текст #1
    Идентификатор : 3
    Формат : Timed Text
    Идентификатор кодека : tx3g
    Продолжительность : 1 ч. 55 м.
    Вид битрейта : Переменный
    Битрейт : 3 бит/сек
    Размер потока : 2, 79 Кбайт (0%)
    Заголовок : Forced
    Язык : Russian
    Forced : Нет
    Дата кодирования : UTC 2017-11-25 06: 36: 53
    Дата пометки : UTC 2017-11-25 06: 36: 53
    Текст #2
    Идентификатор : 4
    Формат : Timed Text
    Идентификатор кодека : tx3g
    Продолжительность : 1 ч. 56 м.
    Вид битрейта : Переменный
    Битрейт : 98 бит/сек
    Размер потока : 83, 4 Кбайт (0%)
    Заголовок : Full
    Язык : Russian
    Forced : Нет
    Дата кодирования : UTC 2017-11-25 06: 36: 53
    Дата пометки : UTC 2017-11-25 06: 36: 53
    Текст #3
    Идентификатор : 5
    Формат : Timed Text
    Идентификатор кодека : tx3g
    Продолжительность : 1 ч. 56 м.
    Вид битрейта : Переменный
    Битрейт : 63 бит/сек
    Размер потока : 53, 5 Кбайт (0%)
    Заголовок : Full
    Язык : English
    Forced : Нет
    Дата кодирования : UTC 2017-11-25 06: 36: 53
    Дата пометки : UTC 2017-11-25 06: 36: 53
    Скриншоты:


    Все одноименные релизы в Клубе
    Время раздачи: с 10: 00 до 22: 00 (до появления первых 3-5 скачавших)


    Инферно/Inferno (2016) HDRip [H.264] [MP4|1280x694]
    загрузка...
    Рейтинг →
     (голосов: 1, оценка 4/5, голосовать можно 1 раз )

    Другие торренты по теме:

  • Инферно / Inferno (2016) WEBRip [H.265 / 1080p] [Трейлер]
  • Инферно / Inferno (2016) CamRip
  • Инферно / Inferno (2016) WEBRip [звук с CamRip]
  • Инферно / Inferno (2016) WEBRip [H.264 / 1080p-LQ] [звук с CamRip]
  • Инферно / Inferno (2016) WEBRip [H.264 / 720p-LQ] [Line]
  • Инферно / Inferno (2016) WEBRip [Line]
  • Инферно / Inferno (2016) HDTV [H.264 / 1080p-LQ]
  • Инферно / Inferno(2016) WEB-DLRip [H.264][MP4|1024x552]


    • Комментарии (0):

      Информация

      Информация

        Посетители, находящиеся в группе Гости, не могут оставлять комментарии в данной новости.

        ↓ Меню




        ↓ Опрос

        Вы добавили сайт в закладки?
        Да
        Нет


        Top 10 за месяц (КПК и мобильные)