.
Авторизация | Регистрация
Хочешь лучшие торренты? Добавь свой email!
Добавить

Торрент скачать бесплатно

» » Поезд в Пусан / Busanhaeng (2016) HDRip [H.264] [MP4|1280x694] торрент скачать бесплатно




    Поезд в Пусан / Busanhaeng (2016) HDRip [H.264] [MP4|1280x694] торрент скачать бесплатно

    Опубликовал: Админ | Дата: 25-11-2017, 05:00 | Просмотров: 1

    Производство: Корея Южная/Next Entertainment World, Red Peter
    Жанр: Триллер, Драма, Ужасы
    Режиссер: Сан Хо Ён
    Продюсер: Ли Дон-ха, Ким Ён-хо
    Актеры: Ю Гон, Ю Ми Чон (II), Дон Сок Ма, Су Ан Ким, Ый Сон Ким, У Шик Чхве, Со Хи Ан, Хёк Чжин Чжан, Ын Гён Сим, Сок Ён Чон, Мён Син Пак, До Им У, Юль Хо Ким

    Описание

    У маленькой Су-ан день рождения. Девочка живет с отцом в Сеуле и очень хочет отправиться к маме в Пусан. По дороге случается непредвиденное, и на страну обрушивается загадочный вирус. Пассажирам поезда в Пусан — единственного города, отразившего атаки вируса- придется бороться за выживание. 442 километра в пути. Добро пожаловать на борт и помните — в этой гонке недостаточно выжить, чтобы остаться человеком.

    Возраст: 16+ (зрителям, достигшим 16 лет)
    Рейтинг MPAA: PG-13 (детям до 13 лет просмотр нежелателен)
    Дата мировой премьеры: 13 мая 2016
    Дата российской премьеры: 24 ноября 2016, ПРОвзгляд
    Продолжительность: 01: 58: 08
    Качество видео: HDRip
    Перевод: Дублированный (iTunes)
    Субтитры: Отсутствуют
    Видео: AVC/H.264, 1280x694, ~1585 Kbps
    Аудио: AAC, 2 ch, ~129 kbps

    Общее
    Полное имя : E: DownloadПоезд в Пусан 2016 720p.mp4
    Формат : MPEG-4
    Профиль формата : Base Media
    Идентификатор кодека : isom (isom/avc1)
    Размер файла : 1, 42 Гбайт
    Продолжительность : 1 ч. 58 м.
    Режим общего битрейта : Переменный
    Общий поток : 1716 Кбит/сек
    Дата кодирования : UTC 2017-11-24 06: 34: 39
    Дата пометки : UTC 2017-11-24 06: 34: 39
    Видео
    Идентификатор : 1
    Формат : AVC
    Формат/Информация : Advanced Video Codec
    Профиль формата : High@L3.1
    Настройки формата : CABAC/1 Ref Frames
    Параметр CABAC формата : Да
    Параметр RefFrames формата : 1 кадр
    Параметр GOP формата : M=1, N=60
    Идентификатор кодека : avc1
    Идентификатор кодека/Информация : Advanced Video Coding
    Продолжительность : 1 ч. 58 м.
    Битрейт : 1585 Кбит/сек
    Максимальный битрейт : 8761 Кбит/сек
    Ширина : 1280 пикселей
    Высота : 694 пикселя
    Соотношение сторон : 1, 85: 1
    Режим частоты кадров : Постоянный
    Частота кадров : 23, 976 (24000/1001) кадра/сек
    Цветовое пространство : YUV
    Субдискретизация насыщенности : 4: 2: 0
    Битовая глубина : 8 бит
    Тип развёртки : Прогрессивная
    Бит/(Пиксели*Кадры) : 0.074
    Размер потока : 1, 31 Гбайт (92%)
    Дата кодирования : UTC 2017-11-24 06: 34: 39
    Дата пометки : UTC 2017-11-24 06: 36: 33
    Цветовой диапазон : Limited
    Основные цвета : BT.709
    Характеристики трансфера : BT.709
    Коэффициенты матрицы : BT.709
    Аудио
    Идентификатор : 2
    Формат : AAC
    Формат/Информация : Advanced Audio Codec
    Профиль формата : Main
    Идентификатор кодека : mp4a-40-1
    Продолжительность : 1 ч. 58 м.
    Вид битрейта : Переменный
    Битрейт : 129 Кбит/сек
    Максимальный битрейт : 134 Кбит/сек
    Каналы : 2 канала
    Расположение каналов : Front: L R
    Частота : 48, 0 КГц
    Частота кадров : 46, 875 кадров/сек (1024 SPF)
    Метод сжатия : С потерями
    Размер потока : 109 Мбайт (7%)
    Заголовок : Дублированный (iTunes)
    Язык : Russian
    Дата кодирования : UTC 2017-11-24 06: 36: 08
    Дата пометки : UTC 2017-11-24 06: 36: 33
    Скриншоты:


    Все одноименные релизы в Клубе
    Время раздачи: с 10: 00 до 22: 00 (до появления первых 3-5 скачавших)


    Поезд в Пусан/Busanhaeng (2016) HDRip [H.264] [MP4|1280x694]
    загрузка...
    Рейтинг →
     (голосов: 1, оценка 5/5, голосовать можно 1 раз )

    Другие торренты по теме:

  • Поезд в Пусан / Train to Busan / Busanhaeng (2016) WEBRip [H.264 / 720p-LQ]
  • Поезд в Пусан / Busanhaeng (2016) WEBRip [H.264 / 1080p-LQ]
  • Поезд в Пусан / Busanhaeng (2016) WEBRip
  • Поезд в Пусан / Busanhaeng (2016) WEBRip
  • Поезд в Пусан / Busanhaeng (2016) WEBRip [H.264 / 1080p-LQ]
  • Поезд в Пусан / Busanhaeng (2016) WEBRip [H.264 / 1080p-LQ] [Line]
  • Поезд в Пусан / Busanhaeng (2016) HDTVRip [Line]
  • Поезд в Пусан / Busanhaeng (2016) WEBRip [H.264] [MP4|1024x552]


    • Комментарии (0):

      Информация

      Информация

        Посетители, находящиеся в группе Гости, не могут оставлять комментарии в данной новости.

        ↓ Меню




        ↓ Опрос

        Вы добавили сайт в закладки?
        Да
        Нет


        Top 10 за месяц (КПК и мобильные)