.
Авторизация | Регистрация
Хочешь лучшие торренты? Добавь свой email!
Добавить

Торрент скачать бесплатно

» » Выживший / The Revenant (2015) HDRip [H.264] [MP4|1920x1080] торрент скачать бесплатно




    Выживший / The Revenant (2015) HDRip [H.264] [MP4|1920x1080] торрент скачать бесплатно

    Опубликовал: Админ | Дата: 23-11-2017, 05:00 | Просмотров: 0

    Производство: США, Гонконг, Тайвань, Канада/20th Century Fox Film Corporation, New Regency Pictures, RatPac Entertainment, Soho VFX, Appian Way, Anonymous Content
    Жанр: Триллер, Драма, Приключения, Вестерн
    Режиссер: Алехандро Гонсалес Иньярриту
    Продюсер: Джек Фиск, Лорел Бергман, Майкл Динер
    Актеры: Леонардо ДиКаприо, Том Харди, Донал Глисон, Уилл Поултер, Форрест Гудлак, Пол Андерсон, Кристоффер Йонер, Джошуа Бёрдж, Кристофер Розамунд, Дуан Ховард, Мила Нахеко, Фабрис Адд, Роберт Молони, Лукас Хаас, Эммануэль Билодо

    Описание

    Охотник Хью Гласс серьезно ранен на неизведанных просторах американского Дикого Запада. Товарищ Хью по отряду покорителей новых земель Джон Фицжеральд предательски оставляет его умирать в одиночестве. Теперь у Гласса осталось только одно оружие - его сила воли. Он готов бросить вызов первобытной природе, суровой зиме и враждебным племенам индейцев, только чтобы выжить и отомстить Фицжеральду.

    Возраст: 18+ (зрителям, достигшим 18 лет. запрещено для детей)
    Рейтинг MPAA: R (лицам до 17 лет обязательно присутствие взрослого)
    Дата мировой премьеры: 16 декабря 2015
    Дата российской премьеры: 7 января 2016
    Продолжительность: 02: 36: 55
    Качество видео: HDRip
    Перевод: Дублированный (Лицензия BD EUR)
    Субтитры: Русские (форсированные, полные), Английские (полные)
    Видео: AVC/H.264, 1920x1080, ~2870 Kbps
    Аудио: AC3, 6 ch, 384 kbps

    Общее
    Полное имя : E: DownloadВыживший 2015 1080p.mp4
    Формат : MPEG-4
    Профиль формата : Base Media
    Идентификатор кодека : isom (isom/avc1/iso6)
    Размер файла : 3, 56 Гбайт
    Продолжительность : 2 ч. 36 м.
    Режим общего битрейта : Переменный
    Общий поток : 3245 Кбит/сек
    Дата кодирования : UTC 2017-11-22 06: 05: 31
    Дата пометки : UTC 2017-11-22 06: 05: 31
    Видео
    Идентификатор : 1
    Формат : AVC
    Формат/Информация : Advanced Video Codec
    Профиль формата : High@L4
    Настройки формата : CABAC/2 Ref Frames
    Параметр CABAC формата : Да
    Параметр RefFrames формата : 2 кадра
    Идентификатор кодека : avc1
    Идентификатор кодека/Информация : Advanced Video Coding
    Продолжительность : 2 ч. 36 м.
    Битрейт : 2870 Кбит/сек
    Максимальный битрейт : 7861 Кбит/сек
    Ширина : 1920 пикселей
    Высота : 1080 пикселей
    Соотношение сторон : 16: 9
    Режим частоты кадров : Постоянный
    Частота кадров : 23, 976 (24000/1001) кадра/сек
    Цветовое пространство : YUV
    Субдискретизация насыщенности : 4: 2: 0
    Битовая глубина : 8 бит
    Тип развёртки : Прогрессивная
    Бит/(Пиксели*Кадры) : 0.058
    Размер потока : 3, 14 Гбайт (88%)
    Дата кодирования : UTC 2017-11-22 06: 05: 31
    Дата пометки : UTC 2017-11-22 06: 10: 26
    Цветовой диапазон : Limited
    Основные цвета : BT.709
    Характеристики трансфера : BT.709
    Коэффициенты матрицы : BT.709
    Аудио
    Идентификатор : 2
    Формат : AC-3
    Формат/Информация : Audio Coding 3
    Параметр Endianness формата : Big
    Идентификатор кодека : ac-3
    Продолжительность : 2 ч. 36 м.
    Вид битрейта : Постоянный
    Битрейт : 384 Кбит/сек
    Максимальный битрейт : 406 Кбит/сек
    Каналы : 6 каналов
    Расположение каналов : Front: L C R, Side: L R, LFE
    Частота : 48, 0 КГц
    Частота кадров : 31, 250 кадров/сек (1536 SPF)
    Битовая глубина : 16 бит
    Метод сжатия : С потерями
    Размер потока : 429 Мбайт (12%)
    Заголовок : Дублированный (Лицензия BD EUR)
    Язык : Russian
    ServiceKind/String : Complete Main
    Дата кодирования : UTC 2017-11-22 06: 09: 32
    Дата пометки : UTC 2017-11-22 06: 10: 26
    Текст #1
    Идентификатор : 3
    Формат : Timed Text
    Идентификатор кодека : tx3g
    Продолжительность : 2 ч. 36 м.
    Вид битрейта : Переменный
    Битрейт : 6 бит/сек
    Размер потока : 6, 61 Кбайт (0%)
    Заголовок : Forced
    Язык : Russian
    Forced : Нет
    Дата кодирования : UTC 2017-11-22 06: 10: 26
    Дата пометки : UTC 2017-11-22 06: 10: 26
    Текст #2
    Идентификатор : 4
    Формат : Timed Text
    Идентификатор кодека : tx3g
    Продолжительность : 2 ч. 36 м.
    Вид битрейта : Переменный
    Битрейт : 40 бит/сек
    Размер потока : 46, 1 Кбайт (0%)
    Заголовок : Full
    Язык : Russian
    Forced : Нет
    Дата кодирования : UTC 2017-11-22 06: 10: 26
    Дата пометки : UTC 2017-11-22 06: 10: 26
    Текст #3
    Идентификатор : 5
    Формат : Timed Text
    Идентификатор кодека : tx3g
    Продолжительность : 2 ч. 36 м.
    Вид битрейта : Переменный
    Битрейт : 26 бит/сек
    Размер потока : 29, 6 Кбайт (0%)
    Заголовок : Full
    Язык : English
    Forced : Нет
    Дата кодирования : UTC 2017-11-22 06: 10: 26
    Дата пометки : UTC 2017-11-22 06: 10: 26
    Скриншоты:


    Все одноименные релизы в Клубе
    Время раздачи: с 10: 00 до 22: 00 (до появления первых 3-5 скачавших)


    Выживший/The Revenant (2015) HDRip [H.264] [MP4|1920x1080]
    загрузка...
    Рейтинг →
     (голосов: 1, оценка 4/5, голосовать можно 1 раз )

    Другие торренты по теме:

  • Выживший / The Revenant (2015) WEBRip [H.264 / 1080p] [Трейлер] [EN] скачать через торрент бесплатно
  • Выживший / The Revenant (2015) WEBRip [H.264 / 1080p] [Трейлер] скачать через торрент бесплатно
  • Выживший / The Revenant (2015) DCPRip [2K] [Hi10P, Hi444PP] [Трейлер] скачать через торрент бесплатно
  • Выживший / The Revenant (2015) DVDScr [H.264] скачать через торрент бесплатно
  • Выживший / The Revenant (2015) DVDScr скачать через торрент бесплатно
  • Выживший / The Revenant (2015) DVDScr [EN] скачать через торрент бесплатно
  • Выживший / The Revenant (2015) DVDScr [H.264] скачать через торрент бесплатно
  • Выживший / The Revenant (2015) WEBRip [H.264 / 720p-LQ]


    • Комментарии (0):

      Информация

      Информация

        Посетители, находящиеся в группе Гости, не могут оставлять комментарии в данной новости.

        ↓ Меню




        ↓ Опрос

        Вы добавили сайт в закладки?
        Да
        Нет


        Top 10 за месяц (КПК и мобильные)