.
Авторизация | Регистрация
Хочешь лучшие торренты? Добавь свой email!
Добавить

Торрент скачать бесплатно

» » Учёные против мифов 5 (2017) WEBRip [H.264] (части 1-6 из ) [MP4|1280x720] (обновляемая) торрент скачать бесплатно




    Учёные против мифов 5 (2017) WEBRip [H.264] (части 1-6 из ) [MP4|1280x720] (обновляемая) торрент скачать бесплатно

    Опубликовал: Админ | Дата: 23-11-2017, 05:00 | Просмотров: 0

    Жанр: Лекция, Документальный
    Ведущий: Георгий Соколов

    Описание

    Лженаука – как гидра: на месте отрубленной головы вырастают две. Пока джедаи науки уничтожали очередную порцию мифов – к нам продолжали поступать тревожные новости! Сообщали, что большой адронный коллайдер вот-вот уничтожит вселенную, а корпорации в тайне готовят новые киотские протоколы. Что шумеры произошли от славян, а славяне – от дельфинов. Что дольмены построены сверхцивилизацией, унесшей с собой в могилу технологию геополимерного бетона. Да, борцам с мракобесием не время прятать мечи! Джедайская труба зовет неравнодушных на 5-й шабаш банды официальных учёных!
    Продолжительность: ~00: 40: 00 лекция.
    Качество видео: WEBRip
    Субтитры: отсутствуют
    Видео: AVC/H.264, 1280x720, ~450 Kbps
    Аудио: AAC, 2 ch, 126 Kbps

    Общее
    Полное имя : C: Учёные против мифов 51. Как общаться с немогликами. Александр Соколов.MP4
    Формат : MPEG-4
    Профиль формата : Base Media/Version 2
    Идентификатор кодека : mp42 (isom/mp42)
    Размер файла : 168 Мбайт
    Продолжительность : 40 м. 35 с.
    Режим общего битрейта : Переменный
    Общий поток : 579 Кбит/сек
    Дата кодирования : UTC 2017-10-29 10: 09: 51
    Дата пометки : UTC 2017-10-29 10: 09: 51
    gsst : 0
    gstd : 2435355
    Видео
    Идентификатор : 1
    Формат : AVC
    Формат/Информация : Advanced Video Codec
    Профиль формата : Main@L3.1
    Настройки формата : CABAC/3 Ref Frames
    Параметр CABAC формата : Да
    Параметр RefFrames формата : 3 кадра
    Идентификатор кодека : avc1
    Идентификатор кодека/Информация : Advanced Video Coding
    Продолжительность : 40 м. 35 с.
    Битрейт : 450 Кбит/сек
    Ширина : 1280 пикселей
    Высота : 720 пикселей
    Соотношение сторон : 16: 9
    Режим частоты кадров : Постоянный
    Частота кадров : 25, 000 кадров/сек
    Цветовое пространство : YUV
    Субдискретизация насыщенности : 4: 2: 0
    Битовая глубина : 8 бит
    Тип развёртки : Прогрессивная
    Бит/(Пиксели*Кадры) : 0.020
    Размер потока : 131 Мбайт (78%)
    Заголовок : ISO Media file produced by Google Inc. Created on: 10/29/2017.
    Дата кодирования : UTC 2017-10-29 10: 09: 51
    Дата пометки : UTC 2017-10-29 10: 09: 51
    Цветовой диапазон : Limited
    Основные цвета : BT.709
    Характеристики трансфера : BT.709
    Коэффициенты матрицы : BT.709
    Аудио
    Идентификатор : 2
    Формат : AAC
    Формат/Информация : Advanced Audio Codec
    Профиль формата : LC
    Идентификатор кодека : mp4a-40-2
    Продолжительность : 40 м. 35 с.
    Вид битрейта : Переменный
    Битрейт : 126 Кбит/сек
    Каналы : 2 канала
    Расположение каналов : Front: L R
    Частота : 44, 1 КГц
    Частота кадров : 43, 066 кадра/сек (1024 SPF)
    Метод сжатия : С потерями
    Размер потока : 36, 5 Мбайт (22%)


    Учёные против мифов 5 (2017) WEBRip [H.264] (части 1-6 из ) [MP4|1280x720] (обновляемая)
    загрузка...
    Рейтинг →
     (голосов: 1, оценка 3/5, голосовать можно 1 раз )

    Другие торренты по теме:

  • Учёные против мифов (2016) WEBRip [H.264] [MP4|1280x720]
  • Учёные против мифов 3 (28.01.2017) WEBRip [H.264] (части 1-5 из ) [MP4|1280x720]
  • Учёные против мифов 4 (10.06.2017) WEBRip [H.264] (части 1-2 из ) [MP4|1280x720]


    • Комментарии (0):

      Информация

      Информация

        Посетители, находящиеся в группе Гости, не могут оставлять комментарии в данной новости.

        ↓ Меню




        ↓ Опрос

        Вы добавили сайт в закладки?
        Да
        Нет


        Top 10 за месяц (КПК и мобильные)