.
Авторизация | Регистрация
Хочешь лучшие торренты? Добавь свой email!
Добавить

Торрент скачать бесплатно

» » Каратель / The Punisher (2017) WEBRip [H.264] (сезон 1, серии 1-5 из 13) BaibaKo [MP4|720x400] [AD] торрент скачать бесплатно




    Каратель / The Punisher (2017) WEBRip [H.264] (сезон 1, серии 1-5 из 13) BaibaKo [MP4|720x400] [AD] торрент скачать бесплатно

    Опубликовал: Админ | Дата: 23-11-2017, 05:00 | Просмотров: 0

    Производство: США/ABC Studios, Disney-ABC Domestic Television, Marvel Entertainment
    Жанр: боевик, триллер, драма, криминал, приключения
    Режиссер: Энди Годдард, Том Шенклэнд, Антонио Кампос
    Актеры: Джон Бернтал, Эмбер Роуз Рева, Эбон Мосс-Бакрак, Бен Барнс, Джейми Рэй Ньюман, Коби Фрумер, Пол Шульц, Майкл Натансон, Рипли Собо, Даниэль Уэббер и др.

    Описание

    После того, как семья Фрэнка Касла была убита во время перестрелки нескольких банд Нью-Йорка, он решает отомстить и начинает охоту на преступников города. В преступном мире он становится известен как Каратель.

    Возраст: 16+ (зрителям, достигшим 16 лет)
    Продолжительность: ~ 00: 52: 00 серия
    Качество видео: WEBRip
    Перевод: Многоголосый закадровый, профессиональный -BaibaKo
    Реклама: присутствуют голосовые и текстовые вставки
    Видео: AVC/H.264, 720x400 (16: 9), ~1536 Kbps
    Аудио #1: AAC, 2 ch, 160 Kbps - русский (MVO)
    Аудио #2: AAC, 2 ch, 160 Kbps - английский

    Полное имя : D: The_Punisher_s1_WEBRip_x264_BaibaKo_NNM-CLUBThe.Punisher.s01e01.WEBRip.x264.Rus.Eng.BaibaKo.tv.mp4
    Формат : MPEG-4
    Профиль формата : Base Media
    Идентификатор кодека : isom (isom/iso2/avc1/mp41)
    Размер файла : 685 Мбайт
    Продолжительность : 51 м.
    Общий поток : 1864 Кбит/сек
    Видео
    Идентификатор : 1
    Формат : AVC
    Формат/Информация : Advanced Video Codec
    Профиль формата : Main@L3
    Параметр CABAC формата : Нет
    Параметр ReFrames формата : 3 кадра
    Идентификатор кодека : avc1
    Идентификатор кодека/Информация : Advanced Video Coding
    Продолжительность : 51 м.
    Битрейт : 1536 Кбит/сек
    Ширина : 720 пикселей
    Высота : 400 пикселей
    Соотношение сторон : 16: 9
    Режим частоты кадров : Постоянный
    Частота кадров : 23, 976 кадра/сек
    Цветовое пространство : YUV
    Субдискретизация насыщенности : 4: 2: 0
    Битовая глубина : 8 бит
    Тип развёртки : Прогрессивная
    Бит/(Пиксели*Кадры) : 0.222
    Размер потока : 565 Мбайт (82%)
    Библиотека кодирования : x264 core 146 r2538M 121396c
    Настройки программы : cabac=0/ref=3/deblock=1: 0: 0/analyse=0x1: 0x131/me=hex/subme=7/psy=1/psy_rd=1, 00: 0, 20/mixed_ref=1/me_range=16/chroma_me=1/trellis=1/8x8dct=0/cqm=0/deadzone=21, 11/fast_pskip=1/chroma_qp_offset=-3/threads=6/lookahead_threads=1/sliced_threads=0/nr=0/decimate=1/interlaced=0/bluray_compat=0/constrained_intra=0/bframes=0/weightp=2/keyint=230/keyint_min=23/scenecut=0/intra_refresh=0/rc_lookahead=230/rc=2pass/mbtree=1/bitrate=1536/ratetol=1, 0/qcomp=0, 60/qpmin=10/qpmax=51/qpstep=4/cplxblur=20, 0/qblur=0, 5/ip_ratio=1, 40/aq=1: 1, 00
    Аудио #1
    Идентификатор : 2
    Формат : AAC
    Формат/Информация : Advanced Audio Codec
    Профиль формата : LC
    Идентификатор кодека : 40
    Продолжительность : 51 м.
    Вид битрейта : Постоянный
    Битрейт : 160 Кбит/сек
    Каналы : 2 канала
    Расположение каналов : Front: L R
    Частота : 48, 0 КГц
    Частота кадров : 46, 875 кадров/сек
    Метод сжатия : С потерями
    Размер потока : 58, 8 Мбайт (9%)
    Язык : Russian
    Default : Да
    Alternate group : 1
    Аудио #2
    Идентификатор : 3
    Формат : AAC
    Формат/Информация : Advanced Audio Codec
    Профиль формата : LC
    Идентификатор кодека : 40
    Продолжительность : 51 м.
    Вид битрейта : Постоянный
    Битрейт : 160 Кбит/сек
    Каналы : 2 канала
    Расположение каналов : Front: L R
    Частота : 48, 0 КГц
    Частота кадров : 46, 875 кадров/сек
    Метод сжатия : С потерями
    Размер потока : 58, 8 Мбайт (9%)
    Язык : English
    Default : Нет
    Alternate group : 1
    Скриншоты:


    Сериал Каратель/The Punisher на NNM-Club
    Время раздачи: 24/7 (круглосуточно) (до появления первых 3-5 скачавших)
    Сериал MP4


    Каратель/The Punisher (2017) WEBRip [H.264] (сезон 1, серии 1-5 из 13) BaibaKo [MP4|720x400] [AD]
    загрузка...
    Рейтинг →
     (голосов: 1, оценка 3/5, голосовать можно 1 раз )

    Другие торренты по теме:

  • The Punisher / Каратель (2005) [Ru / En] (1.0) Repack R.G. Catalyst скачать через торрент бесплатно
  • Каратель / The Punisher (1989) BDRip [H.264 / 1080p]
  • Каратель / The Punisher (1989) BDRip [H.265 / 1080p-LQ] [MVO]
  • Каратель: Территория Войны / Punisher: War Zone (2008) BDRip [H.265 / 1080p-LQ] [MVO]
  • Каратель / The Punisher (2004) BDRip [H.265 / 1080p-LQ]
  • Каратель: Территория войны / Punisher: War Zone (2008) BDRip [H.264 / 1080p]
  • Каратель / The Punisher (2017) WEBRip (сезон 1, серии 1-2 из 13) NewStudio (обновляемая)
  • Каратель / The Punisher (2017) WEB-DLRip [H.264 / 1080p-LQ] (сезон 1, серии 13 из 13) IdeaFilm (обновляемая) [AD]


    • Комментарии (0):

      Информация

      Информация

        Посетители, находящиеся в группе Гости, не могут оставлять комментарии в данной новости.

        ↓ Меню




        ↓ Опрос

        Вы добавили сайт в закладки?
        Да
        Нет


        Top 10 за месяц (КПК и мобильные)